<?xml version="1.0" standalone="no"?>
<!DOCTYPE svg PUBLIC "-//W3C//DTD SVG 1.1//EN" "http://www.w3.org/Graphics/SVG/1.1/DTD/svg11.dtd" >
<svg xmlns="http://www.w3.org/2000/svg" xmlns:xlink="http://www.w3.org/1999/xlink" version="1.1">
<metadata></metadata>
<defs>
<font id="black_tiesolid" horiz-adv-x="1008" >
<font-face units-per-em="1008" ascent="1008" descent="0" />
<missing-glyph horiz-adv-x="252" />
<glyph unicode=" "  horiz-adv-x="252" />
<glyph unicode="&#x09;" horiz-adv-x="252" />
<glyph unicode="&#xa0;" horiz-adv-x="252" />
<glyph unicode="&#x25fc;" horiz-adv-x="500" d="M0 0z" />
<glyph unicode="&#xf000;" d="M1008 288v-216h-1008v216h1008zM1008 612v-216h-1008v216h1008zM1008 936v-216h-1008v216h1008z" />
<glyph unicode="&#xf001;" horiz-adv-x="1152" d="M1152 639v-567h-1152v567l507 -333h138zM1152 936v-147l-576 -378l-576 378v147h1152z" />
<glyph unicode="&#xf002;" d="M1008 153l-153 -153l-204 204q-101 -60 -219 -60q-179 0 -305.5 126.5t-126.5 305.5t126.5 305.5t305.5 126.5t305.5 -126.5t126.5 -305.5q0 -118 -60 -219zM432 360q89 0 152.5 63.5t63.5 152.5t-63.5 152.5t-152.5 63.5t-152.5 -63.5t-63.5 -152.5t63.5 -152.5 t152.5 -63.5z" />
<glyph unicode="&#xf003;" d="M804 357l204 -204l-153 -153l-204 204q-101 -60 -219 -60q-179 0 -305.5 126.5t-126.5 305.5t126.5 305.5t305.5 126.5t305.5 -126.5t126.5 -305.5q0 -118 -60 -219zM648 504v144h-144v144h-144v-144h-144v-144h144v-144h144v144h144z" />
<glyph unicode="&#xf004;" d="M804 357l204 -204l-153 -153l-204 204q-101 -60 -219 -60q-179 0 -305.5 126.5t-126.5 305.5t126.5 305.5t305.5 126.5t305.5 -126.5t126.5 -305.5q0 -118 -60 -219zM648 504v144h-432v-144h432z" />
<glyph unicode="&#xf005;" d="M720 414l288 -198l-126 -216h-198q-86 13 -194 82.5t-223 184.5t-184.5 223t-82.5 194v198l216 126l198 -288l-144 -126q49 -87 143 -181t181 -143z" />
<glyph unicode="&#xf006;" />
<glyph unicode="&#xf007;" d="M0 1008h1008v-792h-540l-216 -216h-36v216h-216v792z" />
<glyph unicode="&#xf008;" d="M756 702q-38 0 -64 -26t-26 -64t26 -64t64 -26t64 26t26 64t-26 64t-64 26zM504 702q-38 0 -64 -26t-26 -64t26 -64t64 -26t64 26t26 64t-26 64t-64 26zM252 702q-38 0 -64 -26t-26 -64t26 -64t64 -26t64 26t26 64t-26 64t-64 26zM0 1008h1008v-792h-540l-216 -216h-36 v216h-216v792z" />
<glyph unicode="&#xf009;" d="M0 1008h792v-648h-396l-216 -216h-36v216h-144v648zM864 648v-360h-432l-144 -144h468l144 -144h36v144h72v504h-144z" />
<glyph unicode="&#xf00a;" d="M324 162q0 -67 -47.5 -114.5t-114.5 -47.5t-114.5 47.5t-47.5 114.5t47.5 114.5t114.5 47.5t114.5 -47.5t47.5 -114.5zM684 0h-216q0 95 -37 181.5t-100 149.5t-149.5 100t-181.5 37v216q139 0 265.5 -54.5t218 -146t146 -218t54.5 -265.5zM1008 0h-216q0 161 -63 307.5 t-169 252.5t-252.5 169t-307.5 63v216q205 0 391.5 -80t321.5 -215t215 -321.5t80 -391.5z" />
<glyph unicode="&#xf00b;" />
<glyph unicode="&#xf00c;" d="M1008 828l-324 -324l324 -324l-180 -180l-324 324l-324 -324l-180 180l324 324l-324 324l180 180l324 -324l324 324z" />
<glyph unicode="&#xf00d;" d="M612 504l144 144l-108 108l-144 -144l-144 144l-108 -108l144 -144l-144 -144l108 -108l144 144l144 -144l108 108zM1008 504q0 -208 -148 -356t-356 -148t-356 148t-148 356t148 356t356 148t356 -148t148 -356z" />
<glyph unicode="&#xf00e;" d="M504 1008q208 0 356 -148t148 -356t-148 -356t-356 -148t-356 148t-148 356t148 356t356 148zM576 360v396h-144v-252h-180v-144h324z" />
<glyph unicode="&#xf010;" d="M504 162l-306 -162l-72 72l90 324l-216 234l36 90h270l153 288h90l153 -288h270l36 -90l-216 -234l90 -324l-72 -72z" />
<glyph unicode="&#xf011;" horiz-adv-x="576" d="M576 1008v-808l-378 -200l-72 72l90 324l-216 234l36 90h270l153 288h117z" />
<glyph unicode="&#xf012;" horiz-adv-x="1152" d="M1008 972l144 -144l-720 -720l-432 432l144 144l288 -288z" />
<glyph unicode="&#xf013;" d="M450 216l396 396l-108 108l-288 -288l-162 162l-108 -108zM1008 504q0 -208 -148 -356t-356 -148t-356 148t-148 356t148 356t356 148t356 -148t148 -356z" />
<glyph unicode="&#xf014;" d="M450 216l396 396l-108 108l-288 -288l-162 162l-108 -108zM1008 1008v-1008h-1008v1008h1008z" />
<glyph unicode="&#xf015;" d="M1008 288v-288h-288v288h288zM1008 648v-288h-288v288h288zM1008 1008v-288h-288v288h288zM648 288v-288h-288v288h288zM648 648v-288h-288v288h288zM648 1008v-288h-288v288h288zM288 288v-288h-288v288h288zM288 648v-288h-288v288h288zM288 1008v-288h-288v288h288z " />
<glyph unicode="&#xf016;" d="M1008 432v-432h-432v432h432zM432 432v-432h-432v432h432zM1008 1008v-432h-432v432h432zM432 1008v-432h-432v432h432z" />
<glyph unicode="&#xf017;" horiz-adv-x="1152" d="M1065 921q87 -87 86.5 -209.5t-86.5 -210.5q-117 -117 -489 -501l-489 501q-86 88 -86.5 210.5t86.5 209.5q88 88 212 89t208 -89q32 -32 69 -75l69 75q84 90 208 89t212 -89z" />
<glyph unicode="&#xf018;" horiz-adv-x="576" d="M576 846v-846l-489 501q-86 88 -86.5 210.5t86.5 209.5q88 88 212 89t208 -89q32 -32 69 -75z" />
<glyph unicode="&#xf019;" d="M0 0v576h1008v-576h-1008zM864 864h144v-216h-1008v216h144v144h144v-144h432v144h144v-144z" />
<glyph unicode="&#xf01a;" d="M810 126q0 -52 -37 -89t-89 -37t-89 37t-37 89t37 89t89 37t89 -37t37 -89zM378 126q0 -52 -37 -89t-89 -37t-89 37t-37 89t37 89t89 37t89 -37t37 -89zM1008 639l-187 -351h-677v504h-144v216h360v-216h648v-153z" />
<glyph unicode="&#xf01b;" d="M1008 612v-216h-396v-396h-216v396h-396v216h396v396h216v-396h396z" />
<glyph unicode="&#xf01c;" d="M792 432v144h-216v216h-144v-216h-216v-144h216v-216h144v216h216zM1008 504q0 -208 -148 -356t-356 -148t-356 148t-148 356t148 356t356 148t356 -148t148 -356z" />
<glyph unicode="&#xf01d;" d="M792 432v144h-216v216h-144v-216h-216v-144h216v-216h144v216h216zM1008 1008v-1008h-1008v1008h1008z" />
<glyph unicode="&#xf01e;" d="M684 1008l324 -324v-360l-756 -324l-101 101l352 351q32 -20 73 -20q60 0 102 42t42 102t-42 102t-102 42t-102 -42t-42 -102q0 -41 20 -73l-351 -352l-101 101l324 756h360z" />
<glyph unicode="&#xf021;" d="M1008 612v-216h-1008v216h1008z" />
<glyph unicode="&#xf022;" d="M792 432v144h-576v-144h576zM1008 504q0 -208 -148 -356t-356 -148t-356 148t-148 356t148 356t356 148t356 -148t148 -356z" />
<glyph unicode="&#xf023;" d="M792 432v144h-576v-144h576zM1008 1008v-1008h-1008v1008h1008z" />
<glyph unicode="&#xf024;" d="M72 324l468 468l252 -252l-468 -468l-324 -72zM828 1008l180 -180v-72l-144 -144l-252 252l144 144h72z" />
<glyph unicode="&#xf025;" d="M648 360h216v-360h-864v1008h504v-216h-288v-576h432v144zM882 702l-378 -378l-216 -36l36 216l378 378zM1008 828l-90 -90l-180 180l90 90h36l144 -144v-36z" />
<glyph unicode="&#xf026;" d="M0 0v648h216v-648h-216zM1008 378q0 -58 -45 -97q9 -22 9 -47q0 -65 -54 -103q5 -51 -34.5 -91t-91.5 -40h-270q-51 0 -117 33.5t-117 74.5v504l180 180q30 30 51 83.5t21 96.5q0 15 10.5 25.5t25.5 10.5h54q43 0 66.5 -39.5t23.5 -86.5q0 -28 -5 -52.5t-18.5 -50.5 t-22.5 -41t-31.5 -46.5t-30.5 -43.5h234q52 0 89 -37t37 -89q0 -24 -9 -47q45 -39 45 -97z" />
<glyph unicode="&#xf027;" d="M1008 630q0 -58 -45 -97q9 -22 9 -47q0 -52 -37 -89t-89 -37h-234q8 -12 30.5 -43.5t31.5 -46.5t22.5 -41t18.5 -50.5t5 -52.5q0 -47 -23.5 -86.5t-66.5 -39.5h-54q-15 0 -25.5 10.5t-10.5 25.5q0 43 -21 96.5t-51 83.5l-180 180v504q51 41 117 74.5t117 33.5h270 q52 0 91.5 -39.5t34.5 -91.5q54 -38 54 -103q0 -24 -9 -47q45 -39 45 -97zM0 360v648h216v-648h-216z" />
<glyph unicode="&#xf028;" d="M896 564q8 -60 0 -120l98 -57q-34 -145 -144 -249l-99 57q-45 -37 -103 -60v-114q-70 -21 -144 -21t-144 21v114q-58 23 -103 60l-99 -57q-110 104 -144 249l98 57q-8 60 0 120l-98 57q34 145 144 249l99 -57q45 37 103 60v114q70 21 144 21t144 -21v-114q58 -23 103 -60 l99 57q110 -104 144 -249zM504 324q74 0 127 53t53 127t-53 127t-127 53t-127 -53t-53 -127t53 -127t127 -53z" />
<glyph unicode="&#xf029;" d="M162 0l-72 720h828l-72 -720h-684zM720 936h288v-144h-1008v144h288l72 72h288z" />
<glyph unicode="&#xf02a;" horiz-adv-x="864" d="M864 684v-684h-864v1008h540z" />
<glyph unicode="&#xf02b;" d="M504 1008q208 0 356 -148t148 -356t-148 -356t-356 -148t-356 148t-148 356t148 356t356 148zM576 216v378h-144v-378h144zM504 630q38 0 64 26t26 64t-26 64t-64 26t-64 -26t-26 -64t26 -64t64 -26z" />
<glyph unicode="&#xf02c;" d="M378 720q0 37 -26.5 63.5t-63.5 26.5t-63.5 -26.5t-26.5 -63.5t26.5 -63.5t63.5 -26.5t63.5 26.5t26.5 63.5zM468 1008l540 -540l-468 -468l-540 540v360l108 108h360z" />
<glyph unicode="&#xf02d;" d="M792 720q0 30 -21 51t-51 21t-51 -21t-21 -51t21 -51t51 -21t51 21t21 51zM1008 1008q0 -53 -4.5 -100t-16 -88.5t-21.5 -73t-31.5 -66t-34.5 -55.5t-42 -53t-43 -46t-48 -47.5t-47 -46.5v-252l-180 -180h-180v252l-108 108h-252v180l180 180h252q12 12 42 42.5t43 43.5 t41.5 39.5t46 38.5t48.5 33.5t55.5 31.5t60 23.5t70.5 20t78.5 11t90.5 4.5z" />
<glyph unicode="&#xf02e;" horiz-adv-x="864" d="M180 72h612v144h-612q-30 0 -51 -21t-21 -51t21 -51t51 -21zM864 1008v-1008h-720q-60 0 -102 42t-42 102v720q0 60 42 102t102 42h720z" />
<glyph unicode="&#xf02f;" horiz-adv-x="1152" d="M540 828v-756h-54q-3 2 -18.5 12.5t-19 13t-16.5 11t-18.5 10.5t-17 8t-19 7.5t-19 4.5t-22.5 4t-23 1h-313v792h324q26 0 59.5 -5.5t70.5 -17t61.5 -34t24.5 -51.5zM1152 936v-792h-313q-12 0 -23 -1t-22.5 -4t-19 -4.5t-19 -7.5t-17 -8t-18.5 -10.5t-16.5 -11t-19 -13 t-18.5 -12.5h-54v756q0 29 24.5 51.5t61.5 34t70.5 17t59.5 5.5h324z" />
<glyph unicode="&#xf030;" d="M144 1008h864v-1008h-864v144h-144v144h144v144h-144v144h144v144h-144v144h144v144zM792 576v216h-432v-216h432z" />
<glyph unicode="&#xf031;" horiz-adv-x="1152" d="M792 504q0 89 -63.5 152.5t-152.5 63.5t-152.5 -63.5t-63.5 -152.5t63.5 -152.5t152.5 -63.5t152.5 63.5t63.5 152.5zM1152 864v-792h-1152v792h252l144 144h360l144 -144h252z" />
<glyph unicode="&#xf032;" horiz-adv-x="1152" d="M612 792h540v-720h-1152v864h468z" />
<glyph unicode="&#xf033;" />
<glyph unicode="&#xf034;" />
<glyph unicode="&#xf035;" />
<glyph unicode="&#xf036;" horiz-adv-x="1152" d="M1080 504v-504h-504v576q0 107 38 192t100.5 136t138 77.5t155.5 26.5v-216q-21 0 -42.5 -3t-55 -16t-58 -34.5t-42.5 -63.5t-18 -99v-72h288zM504 504v-504h-504v576q0 107 38 192t100.5 136t138 77.5t155.5 26.5v-216q-21 0 -42.5 -3t-55 -16t-58 -34.5t-42.5 -63.5 t-18 -99v-72h288z" />
<glyph unicode="&#xf037;" horiz-adv-x="1152" d="M0 504v504h504v-576q0 -107 -38 -192t-100.5 -136t-138 -77.5t-155.5 -26.5v216q21 0 42.5 3t55 16t58 34.5t42.5 63.5t18 99v72h-288zM576 504v504h504v-576q0 -107 -38 -192t-100.5 -136t-138 -77.5t-155.5 -26.5v216q21 0 42.5 3t55 16t58 34.5t42.5 63.5t18 99v72 h-288z" />
<glyph unicode="&#xf038;" horiz-adv-x="1152" d="M792 504q0 -89 -63.5 -152.5t-152.5 -63.5t-152.5 63.5t-63.5 152.5t63.5 152.5t152.5 63.5t152.5 -63.5t63.5 -152.5zM955 504q-59 112 -159 182t-220 70t-220 -70t-159 -182q59 -112 159 -182t220 -70t220 70t159 182zM1152 504q-72 -189 -226.5 -310.5t-349.5 -121.5 t-349.5 121.5t-226.5 310.5q72 189 226.5 310.5t349.5 121.5t349.5 -121.5t226.5 -310.5z" />
<glyph unicode="&#xf039;" horiz-adv-x="864" d="M288 576h288v90q0 52 -37 89t-89 37h-36q-52 0 -89 -37t-37 -89v-90zM864 576v-576h-864v576h72v90q0 142 100 242t242 100h36q142 0 242 -100t100 -242v-90h72z" />
<glyph unicode="&#xf03a;" horiz-adv-x="1152" d="M774 1008h36q141 0 241.5 -100.5t100.5 -241.5v-234h-216v234q0 52 -37 89t-89 37h-36q-52 0 -89 -37t-37 -89v-90h144v-576h-792v576h432v90q0 141 100.5 241.5t241.5 100.5z" />
<glyph unicode="&#xf03b;" d="M1008 648v-288h-72v-360h-360v576h-144v-576h-360v360h-72v288h127q-55 63 -55 144q0 89 63.5 152.5t152.5 63.5q97 0 162 -74q9 -10 53 -70q4 5 55 70q58 74 162 74q89 0 152.5 -63.5t63.5 -152.5q0 -81 -55 -144h127zM288 720h146l-93 120q-20 24 -53 24q-30 0 -51 -21 t-21 -51t21 -51t51 -21zM574 720h146q30 0 51 21t21 51t-21 51t-51 21q-34 0 -53 -24z" />
<glyph unicode="&#xf03c;" d="M504 1008q208 0 356 -148t148 -356t-148 -356t-356 -148t-356 148t-148 356t148 356t356 148zM576 432v360h-144v-360h144z" />
<glyph unicode="&#xf03d;" d="M327 237q0 -37 -26.5 -63.5t-63.5 -26.5t-63.5 26.5t-26.5 63.5t26.5 63.5t63.5 26.5t63.5 -26.5t26.5 -63.5zM594 126q0 -37 -26.5 -63.5t-63.5 -26.5t-63.5 26.5t-26.5 63.5t26.5 63.5t63.5 26.5t63.5 -26.5t26.5 -63.5zM216 504q0 -37 -26.5 -63.5t-63.5 -26.5 t-63.5 26.5t-26.5 63.5t26.5 63.5t63.5 26.5t63.5 -26.5t26.5 -63.5zM345 771q0 -44 -32 -76t-76 -32q-45 0 -76.5 32t-31.5 76q0 45 31.5 76.5t76.5 31.5q44 0 76 -31.5t32 -76.5zM861 237q0 -37 -26.5 -63.5t-63.5 -26.5t-63.5 26.5t-26.5 63.5t26.5 63.5t63.5 26.5 t63.5 -26.5t26.5 -63.5zM972 504q0 -37 -26.5 -63.5t-63.5 -26.5t-63.5 26.5t-26.5 63.5t26.5 63.5t63.5 26.5t63.5 -26.5t26.5 -63.5zM630 882q0 -52 -37 -89t-89 -37t-89 37t-37 89t37 89t89 37t89 -37t37 -89zM915 771q0 -59 -42.5 -101.5t-101.5 -42.5t-101.5 42.5 t-42.5 101.5t42.5 101.5t101.5 42.5t101.5 -42.5t42.5 -101.5z" />
<glyph unicode="&#xf03e;" d="M690 558h293q-38 -88 -119 -143t-180 -55q-36 0 -65 7l-367 -367h-72l-180 180v72l367 367q-7 29 -7 65q0 134 95 229t229 95q99 0 180 -55t119 -143h-293l-73 -126z" />
<glyph unicode="&#xf040;" horiz-adv-x="1152" d="M936 573q92 -13 154 -83.5t62 -165.5q0 -104 -74 -178t-178 -74h-594q-127 0 -216.5 89.5t-89.5 216.5q0 106 65 188t165 108q33 115 128.5 188.5t217.5 73.5q149 0 254.5 -105.5t105.5 -254.5v-3z" />
<glyph unicode="&#xf041;" horiz-adv-x="1152" d="M936 573q92 -13 154 -83.5t62 -165.5q0 -104 -74 -178t-178 -74h-252v324l108 -108l108 108l-288 288l-288 -288l108 -108l108 108v-324h-198q-127 0 -216.5 89.5t-89.5 216.5q0 106 65 188t165 108q33 115 128.5 188.5t217.5 73.5q149 0 254.5 -105.5t105.5 -254.5v-3z " />
<glyph unicode="&#xf042;" horiz-adv-x="1152" d="M936 573q92 -13 154 -83.5t62 -165.5q0 -104 -74 -178t-178 -74h-288l252 252l-108 108l-108 -108v324h-144v-324l-108 108l-108 -108l252 -252h-234q-127 0 -216.5 89.5t-89.5 216.5q0 106 65 188t165 108q33 115 128.5 188.5t217.5 73.5q149 0 254.5 -105.5 t105.5 -254.5v-3z" />
<glyph unicode="&#xf043;" d="M504 216q99 0 176.5 61t102.5 155h220q-26 -184 -168 -308t-331 -124q-182 0 -324 118v-118h-180v468h1h467v-180h-154q82 -72 190 -72zM828 1008h180v-468h-1h-467v180h154q-82 72 -190 72q-99 0 -176.5 -61t-102.5 -155h-220q26 184 168 308t331 124q182 0 324 -118 v118z" />
<glyph unicode="&#xf044;" d="M594 234q0 37 -26.5 63.5t-63.5 26.5t-63.5 -26.5t-26.5 -63.5t26.5 -63.5t63.5 -26.5t63.5 26.5t26.5 63.5zM756 630q0 98 -75.5 157t-176.5 59q-99 0 -166.5 -54t-81.5 -151l141 -27q5 47 33 76.5t74 29.5q41 0 74.5 -25t33.5 -65q0 -27 -18.5 -50.5t-45 -43t-53 -42 t-45 -57t-18.5 -77.5h144q1 32 19.5 56t45 41.5t52.5 37t44.5 54t18.5 81.5zM1008 504q0 -208 -148 -356t-356 -148t-356 148t-148 356t148 356t356 148t356 -148t148 -356z" />
<glyph unicode="&#xf045;" d="M792 432q89 0 152.5 -63.5t63.5 -152.5t-63.5 -152.5t-152.5 -63.5t-152.5 63t-63.5 152l-240 109q-53 -36 -120 -36q-89 0 -152.5 63.5t-63.5 152.5t63.5 152.5t152.5 63.5q67 0 120 -36l240 109q0 89 63.5 152t152.5 63t152.5 -63.5t63.5 -152.5t-63.5 -152.5 t-152.5 -63.5q-80 0 -141 53l-221 -100q2 -16 2 -25t-2 -25l221 -100q61 53 141 53z" />
<glyph unicode="&#xf046;" horiz-adv-x="1152" d="M720 360v72h432v-432h-1152v432h432v-72h288zM864 792h288v-288h-1152v288h288v144l72 72h432l72 -72v-144zM720 792v72h-288v-72h288z" />
<glyph unicode="&#xf047;" d="M756 387q0 51 -22 87.5t-60 56t-80 28t-90 8.5q-22 0 -44.5 5t-43 20t-20.5 38q0 34 35.5 53t72.5 19q38 0 69.5 -22t41.5 -57l138 42q-35 114 -177 139v60h-144v-62q-73 -16 -126.5 -64t-53.5 -117q0 -46 24 -82t62.5 -56.5t81 -31t84.5 -10.5q108 0 108 -63 q0 -37 -34 -54.5t-74 -17.5q-38 0 -69.5 22t-41.5 57l-138 -42q35 -114 177 -139v-60h144v62q73 16 126.5 64t53.5 117zM1008 504q0 -208 -148 -356t-356 -148t-356 148t-148 356t148 356t356 148t356 -148t148 -356z" />
<glyph unicode="&#xf048;" horiz-adv-x="1152" d="M1134 576q0 -45 -31.5 -76.5t-76.5 -31.5q-6 0 -18 2v-326h-144l-288 216h-116l98 -270l-252 -90l-131 360h-103l-72 72v288l72 72h504l288 216h144v-326q12 2 18 2q45 0 76.5 -31.5t31.5 -76.5z" />
<glyph unicode="&#xf049;" horiz-adv-x="1152" d="M360 900l396 -396l-396 -396l-144 144l144 144h-360v216h360l-144 144zM1080 1008v-1008h-432v216h216v576h-216v216h432z" />
<glyph unicode="&#xf04a;" horiz-adv-x="1152" d="M432 216v-216h-432v1008h432v-216h-216v-576h216zM720 900l396 -396l-396 -396l-144 144l144 144h-360v216h360l-144 144z" />
<glyph unicode="&#xf04b;" horiz-adv-x="1152" d="M144 144h144v144h-144v-144zM144 432h144v144h-144v-144zM144 720h144v144h-144v-144zM864 144h144v144h-144v-144zM864 432h144v144h-144v-144zM864 720h144v144h-144v-144zM1152 936v-864h-1152v864h1152z" />
<glyph unicode="&#xf04c;" horiz-adv-x="1152" d="M864 864h288v-325q0 -51 -32 -96t-80 -74.5t-109 -53t-113 -36t-98 -18.5v-81h216v-180h-720v180h216v81q-46 6 -98 18.5t-113 36t-109 53t-80 74.5t-32 96v325h288v144h576v-144zM180 547q22 -34 108 -66v203h-108v-137zM972 547v137h-108v-203q86 32 108 66z" />
<glyph unicode="&#xf04d;" horiz-adv-x="1152" d="M738 702l162 126l252 -324l-252 -324l-162 126l144 198zM738 981l-108 -981l-216 27l108 981zM414 306l-162 -126l-252 324l252 324l162 -126l-144 -198z" />
<glyph unicode="&#xf04e;" horiz-adv-x="720" d="M504 216v-144h-42q-12 -32 -40 -52t-62 -20t-62 20t-40 52h-42v144h288zM684 684q0 -92 -48.5 -170.5t-131.5 -119.5v-106h-288v106q-83 41 -131.5 119.5t-48.5 170.5q0 134 95 229t229 95t229 -95t95 -229z" />
<glyph unicode="&#xf050;" d="M216 0v648h576v-468l-180 -180h-396zM0 1008h1008v-576h-144v288h-720v-288h-144v576zM180 810q22 0 38 16t16 38t-16 38t-38 16t-38 -16t-16 -38t16 -38t38 -16z" />
<glyph unicode="&#xf051;" d="M234 144q0 -22 -16 -38t-38 -16t-38 16t-16 38t16 38t38 16t38 -16t16 -38zM0 0h1008v576h-144v-288h-720v288h-144v-576zM216 360v648h396l180 -180v-468h-576z" />
<glyph unicode="&#xf052;" horiz-adv-x="1152" d="M1044 936h108v-864h-108l-252 252v-252h-792v864h792v-252z" />
<glyph unicode="&#xf053;" horiz-adv-x="1152" d="M216 144v-144h-216v144h216zM504 288v-288h-216v288h216zM792 576v-576h-216v576h216zM1080 1008v-1008h-216v1008h216z" />
<glyph unicode="&#xf054;" horiz-adv-x="1152" d="M1062 288h90v-288h-324v288h90v144h-270v-144h90v-288h-324v288h90v144h-270v-144h90v-288h-324v288h90v288h414v144h-90v288h324v-288h-90v-144h414v-288z" />
<glyph unicode="&#xf055;" d="M1008 432v-432h-1008v432h216v-216h576v216h216zM108 648l360 360h72l360 -360l-144 -144l-144 144v-360h-216v360l-144 -144z" />
<glyph unicode="&#xf056;" d="M1008 432v-432h-1008v432h216v-216h576v216h216zM900 648l-396 -396l-396 396l144 144l144 -144v360h216v-360l144 144z" />
<glyph unicode="&#xf057;" d="M740 520l268 -268v-252h-144h-144v144h-144v144h-38q-77 -36 -160 -36q-157 0 -267.5 110.5t-110.5 267.5t110.5 267.5t267.5 110.5t267.5 -110.5t110.5 -267.5q0 -54 -16 -110zM288 612q45 0 76.5 31.5t31.5 76.5t-31.5 76.5t-76.5 31.5t-76.5 -31.5t-31.5 -76.5 t31.5 -76.5t76.5 -31.5z" />
<glyph unicode="&#xf058;" horiz-adv-x="1152" d="M792 864h360v-450q0 -89 -99.5 -161.5t-260.5 -105.5v-147h-792v1008h792v-144zM936 435v213h-144v-279q101 28 144 66z" />
<glyph unicode="&#xf059;" horiz-adv-x="864" d="M0 0v1008h864v-1008h-108l-324 180l-324 -180h-108z" />
<glyph unicode="&#xf05a;" horiz-adv-x="1152" d="M1152 936v-576l-468 -72v144l-468 -72v-360h-216v1008h216v-72l468 72v-144z" />
<glyph unicode="&#xf05b;" d="M720 360h216v-360h-936v936h360v-216h-144v-504h504v144zM432 1008h576v-576h-216v198l-360 -360l-162 162l360 360h-198v216z" />
<glyph unicode="&#xf05c;" d="M864 504h-108q0 -104 -74 -178t-178 -74t-178 74t-74 178h-108q0 -148 106 -254t254 -106t254 106t106 254zM450 684q0 37 -26.5 63.5t-63.5 26.5t-63.5 -26.5t-26.5 -63.5t26.5 -63.5t63.5 -26.5t63.5 26.5t26.5 63.5zM738 684q0 37 -26.5 63.5t-63.5 26.5t-63.5 -26.5 t-26.5 -63.5t26.5 -63.5t63.5 -26.5t63.5 26.5t26.5 63.5zM1008 504q0 -208 -148 -356t-356 -148t-356 148t-148 356t148 356t356 148t356 -148t148 -356z" />
<glyph unicode="&#xf05d;" d="M721 250l100 40q-39 97 -125.5 155.5t-191.5 58.5t-191.5 -58.5t-125.5 -155.5l100 -40q27 66 86.5 106t130.5 40t130.5 -40t86.5 -106zM450 684q0 37 -26.5 63.5t-63.5 26.5t-63.5 -26.5t-26.5 -63.5t26.5 -63.5t63.5 -26.5t63.5 26.5t26.5 63.5zM738 684 q0 37 -26.5 63.5t-63.5 26.5t-63.5 -26.5t-26.5 -63.5t26.5 -63.5t63.5 -26.5t63.5 26.5t26.5 63.5zM1008 504q0 -208 -148 -356t-356 -148t-356 148t-148 356t148 356t356 148t356 -148t148 -356z" />
<glyph unicode="&#xf05e;" d="M216 324h576v108h-576v-108zM450 684q0 37 -26.5 63.5t-63.5 26.5t-63.5 -26.5t-26.5 -63.5t26.5 -63.5t63.5 -26.5t63.5 26.5t26.5 63.5zM738 684q0 37 -26.5 63.5t-63.5 26.5t-63.5 -26.5t-26.5 -63.5t26.5 -63.5t63.5 -26.5t63.5 26.5t26.5 63.5zM1008 504 q0 -208 -148 -356t-356 -148t-356 148t-148 356t148 356t356 148t356 -148t148 -356z" />
<glyph unicode="&#xf060;" d="M302 391l152 -152l-238 -239l-153 153zM952 846l47 -118l-126 -138l51 -187l-91 -91l-185 97l-185 -97l-91 92l51 186l-126 138l47 118h163l87 162h108l86 -162h164z" />
<glyph unicode="&#xf061;" horiz-adv-x="864" d="M828 720l-468 -720h-162l126 432h-288l72 576h378l-72 -288h414z" />
<glyph unicode="&#xf062;" horiz-adv-x="1152" d="M666 216q0 37 -26.5 63.5t-63.5 26.5t-63.5 -26.5t-26.5 -63.5t26.5 -63.5t63.5 -26.5t63.5 26.5t26.5 63.5zM630 360l18 360h-144l18 -360h108zM666 1008l486 -864l-108 -144h-936l-108 144l486 864h180z" />
<glyph unicode="&#xf063;" d="M594 288q0 37 -26.5 63.5t-63.5 26.5t-63.5 -26.5t-26.5 -63.5t26.5 -63.5t63.5 -26.5t63.5 26.5t26.5 63.5zM558 414l18 378h-144l18 -378h108zM1008 504q0 -208 -148 -356t-356 -148t-356 148t-148 356t148 356t356 148t356 -148t148 -356z" />
<glyph unicode="&#xf064;" d="M360 1008h288v-288l360 -576l-90 -144h-828l-90 144l360 576v288z" />
<glyph unicode="&#xf065;" horiz-adv-x="1152" d="M324 864l828 144v-756q0 -74 -74 -127t-178 -53t-178 53t-74 127t74 127t178 53q35 0 72 -8v229l-468 -82v-391q0 -74 -74 -127t-178 -53t-178 53t-74 127t74 127t178 53q35 0 72 -8v512z" />
<glyph unicode="&#xf066;" d="M684 1008l324 -324l-180 -180l-72 72l-131 -131q36 -87 17 -184t-89 -166l-175 175l-198 -198l-180 -72l72 180l198 198l-175 175q69 70 166 89t184 -17l131 131l-72 72z" />
<glyph unicode="&#xf067;" horiz-adv-x="864" d="M249 301l471 378v185l-561 -451q25 -50 90 -112zM864 1008v-540q0 -57 -31 -118t-77.5 -111.5t-107 -98.5t-114 -81.5t-102.5 -58.5q-49 25 -102.5 58.5t-114 82t-107 99t-77.5 111t-31 117.5v540h864z" />
<glyph unicode="&#xf068;" horiz-adv-x="864" d="M432 936l432 -324l-54 -108h-756l-54 108zM432 0l-432 324l54 108h756l54 -108z" />
<glyph unicode="&#xf069;" horiz-adv-x="1152" d="M1152 144v-144h-216v144q0 104 -84.5 178t-203.5 74h-216l252 -252l-144 -144l-504 504l504 504l144 -144l-252 -252h216q137 0 253 -62.5t183.5 -170.5t67.5 -235z" />
<glyph unicode="&#xf06a;" horiz-adv-x="1152" d="M36 0v144q0 127 67.5 235t183.5 170.5t253 62.5h216l-252 252l144 144l504 -504l-504 -504l-144 144l252 252h-216q-119 0 -203.5 -74t-84.5 -178v-144h-216z" />
<glyph unicode="&#xf06b;" horiz-adv-x="1152" d="M270 540l252 -342l-180 -126l-342 468l342 468l180 -126zM1152 252v-252h-216v252q0 74 -63.5 127t-152.5 53h-10l172 -234l-180 -126l-342 468l342 468l180 -126l-172 -234h10q178 0 305 -116t127 -280z" />
<glyph unicode="&#xf06c;" horiz-adv-x="1152" d="M882 540l-252 342l180 126l342 -468l-342 -468l-180 126zM432 648h10l-172 234l180 126l342 -468l-342 -468l-180 126l172 234h-10q-89 0 -152.5 -53t-63.5 -127v-252h-216v252q0 164 127 280t305 116z" />
<glyph unicode="&#xf06d;" d="M1008 360v-216h-360q0 -60 -42 -102t-102 -42t-102 42t-42 102h-360v216h72q30 0 51 21t21 51v216q0 153 110 259t263 101q146 -5 246.5 -113t100.5 -256v-207q0 -30 21 -51t51 -21h72z" />
<glyph unicode="&#xf06e;" horiz-adv-x="1152" d="M1008 360h72v-216h-360q0 -60 -42 -102t-102 -42q-57 0 -98 38t-45 94l503 342v-42q0 -30 21 -51t51 -21zM1026 1008l126 -162l-1026 -720l-126 180l216 148v194q0 153 110 259t263 101q153 -6 256 -124z" />
<glyph unicode="&#xf070;" d="M504 1008q208 0 356 -148t148 -356t-148 -356t-356 -148t-356 148t-148 356t148 356t356 148zM504 792q-119 0 -203.5 -84.5t-84.5 -203.5q0 -60 23 -112l377 377q-52 23 -112 23zM504 216q119 0 203.5 84.5t84.5 203.5q0 60 -23 112l-377 -377q52 -23 112 -23z" />
<glyph unicode="&#xf071;" horiz-adv-x="864" d="M864 327v-219q0 -32 -57 -55.5t-139 -34t-141.5 -14.5t-94.5 -4t-94.5 4t-141.5 14.5t-139 34t-57 55.5v219q131 -75 432 -75t432 75zM864 651v-219q0 -32 -57 -55.5t-139 -34t-141.5 -14.5t-94.5 -4t-94.5 4t-141.5 14.5t-139 34t-57 55.5v219q131 -75 432 -75t432 75z M864 900v-144q0 -32 -57 -55.5t-139 -34t-141.5 -14.5t-94.5 -4t-94.5 4t-141.5 14.5t-139 34t-57 55.5v144q0 32 57 55.5t139 34t141.5 14.5t94.5 4t94.5 -4t141.5 -14.5t139 -34t57 -55.5z" />
<glyph unicode="&#xf072;" horiz-adv-x="1152" d="M1044 252q0 30 -21 51t-51 21t-51 -21t-21 -51t21 -51t51 -21t51 21t21 51zM1152 432v-360h-1152v360h1152zM936 936l216 -432h-1152l216 432h720z" />
<glyph unicode="&#xf073;" horiz-adv-x="1152" d="M900 756l252 -252l-252 -252l-108 18v126h-216l-324 -324h-252v216h162l216 216l-216 216h-162v216h252l324 -324h216v126z" />
<glyph unicode="&#xf074;" horiz-adv-x="1152" d="M918 486l234 -234l-234 -234l-126 18v108h-306l-252 252h-234v216h234l252 252h306v108l126 18l234 -234l-234 -234l-126 18v108h-198l-144 -144l144 -144h198v108z" />
<glyph unicode="&#xf075;" horiz-adv-x="1152" d="M720 216q0 -60 -42 -102t-102 -42t-102 42t-42 102t42 102t102 42t102 -42t42 -102zM956 475l-150 -158q-40 53 -100.5 84t-129.5 31t-129.5 -31t-100.5 -84l-150 158q71 81 170 127t210 46t210 -46t170 -127zM1152 684l-147 -156q-81 90 -192.5 141t-236.5 51 t-236.5 -51t-192.5 -141l-147 156q111 118 260.5 185t315.5 67t315.5 -67t260.5 -185z" />
<glyph unicode="&#xf076;" horiz-adv-x="1152" d="M1152 1008l-144 -864l-336 96l-240 -240v270l468 450l-598 -374l-302 86z" />
<glyph unicode="&#xf077;" horiz-adv-x="1152" d="M1152 432v-360h-1152v360h342l72 -72h324l69 72h345zM936 936l216 -432h-378l-72 -72h-252l-72 72h-378l216 432h720z" />
<glyph unicode="&#xf078;" horiz-adv-x="864" d="M501 265l-39 -49q-128 33 -223 123t-95 212q0 54 26 98.5t63 72.5t74 51.5t63 47.5t26 49q0 36 -33 89l39 49q128 -33 223 -123t95 -212q0 -54 -26 -98.5t-63 -72.5t-74 -51.5t-63 -47.5t-26 -49q0 -36 33 -89zM864 216h-864v-216h864v216z" />
<glyph unicode="&#xf079;" horiz-adv-x="864" d="M864 450l-756 -450l-108 72v864l108 72l756 -450v-108z" />
<glyph unicode="&#xf07a;" d="M1008 1008v-1008h-360v1008h360zM360 1008v-1008h-360v1008h360z" />
<glyph unicode="&#xf07b;" d="M396 252l360 234v36l-360 234l-36 -18v-468zM504 1008q208 0 356 -148t148 -356t-148 -356t-356 -148t-356 148t-148 356t148 356t356 148z" />
<glyph unicode="&#xf07c;" horiz-adv-x="864" d="M648 1008h216v-1008h-216v450l-540 -450l-108 72v864l108 72l540 -450v450z" />
<glyph unicode="&#xf07d;" horiz-adv-x="864" d="M0 1008h216v-450l540 450l108 -72v-864l-108 -72l-540 450v-450h-216v1008z" />
<glyph unicode="&#xf07e;" horiz-adv-x="1152" d="M1077 723q75 -95 75 -219q0 -149 -105.5 -254.5t-254.5 -105.5h-288v-126l-108 -18l-252 252l252 252l108 -18v-126h288q59 0 101.5 42.5t42.5 101.5q0 34 -15 63zM756 1008l252 -252l-252 -252l-108 18v126h-288q-59 0 -101.5 -42.5t-42.5 -101.5q0 -34 15 -63 l-156 -156q-75 95 -75 219q0 149 105.5 254.5t254.5 105.5h288v126z" />
<glyph unicode="&#xf080;" horiz-adv-x="1152" d="M576 936l108 72l468 -468v-72l-468 -468l-108 72v396l-468 -468l-108 72v864l108 72l468 -468v396z" />
<glyph unicode="&#xf081;" horiz-adv-x="1152" d="M468 1008l108 -72v-396l468 468l108 -72v-864l-108 -72l-468 468v-396l-108 -72l-468 468v72z" />
<glyph unicode="&#xf082;" horiz-adv-x="576" d="M504 936v-864h-180l-144 216h-180v432h180l144 216h180z" />
<glyph unicode="&#xf083;" horiz-adv-x="1152" d="M0 720h180l144 216h180v-864h-180l-144 216h-180v432zM1008 792l144 -144l-144 -144l144 -144l-144 -144l-144 144l-144 -144l-144 144l144 144l-144 144l144 144l144 -144z" />
<glyph unicode="&#xf084;" horiz-adv-x="1152" d="M742 804q122 -125 122 -300q0 -83 -31.5 -161.5t-89.5 -138.5l-156 150q61 63 61 150t-61 150zM949 1008q97 -100 150 -232t53 -272q0 -139 -52.5 -269t-149.5 -231l-156 150q68 70 105 161t37 189q0 97 -37 188.5t-105 161.5zM0 720h180l144 216h180v-864h-180l-144 216 h-180v432z" />
<glyph unicode="&#xf085;" horiz-adv-x="864" d="M742 804q122 -125 122 -300q0 -83 -31.5 -161.5t-89.5 -138.5l-156 150q61 63 61 150t-61 150zM0 720h180l144 216h180v-864h-180l-144 216h-180v432z" />
<glyph unicode="&#xf086;" horiz-adv-x="1152" d="M1152 1008v-432h-216v216h-216v216h432zM1152 432v-432h-432v216h216v216h216zM0 0v432h216v-216h216v-216h-432zM0 576v432h432v-216h-216v-216h-216z" />
<glyph unicode="&#xf087;" horiz-adv-x="1152" d="M432 432v-432h-216v216h-216v216h432zM432 1008v-432h-432v216h216v216h216zM1152 792v-216h-432v432h216v-216h216zM936 216v-216h-216v432h432v-216h-216z" />
<glyph unicode="&#xf088;" horiz-adv-x="1152" d="M0 936h1152v-864h-1152v864zM378 216q68 0 123.5 42.5t85.5 113.5l-131 60q-12 -33 -33 -52.5t-45 -19.5q-38 0 -64 42t-26 102t26 102t64 42q24 0 45 -19.5t33 -52.5l131 60q-30 71 -85.5 113.5t-123.5 42.5q-98 0 -166 -83.5t-68 -204.5t68 -204.5t166 -83.5zM810 360 q-38 0 -64 42t-26 102t26 102t64 42q43 0 69 -53l132 57q-31 64 -84 102t-117 38q-98 0 -166 -83.5t-68 -204.5t68 -204.5t166 -83.5q64 0 117 38t84 102l-132 57q-26 -53 -69 -53z" />
<glyph unicode="&#xf089;" horiz-adv-x="1152" d="M918 990l234 -234l-234 -234l-126 18v108h-54l-504 -504h-234v216h126l504 504h162v108zM918 486l234 -234l-234 -234l-126 18v108h-162l-162 162l162 162l108 -108h54v108zM234 864l162 -162l-162 -162l-108 108h-126v216h234z" />
<glyph unicode="&#xf08a;" horiz-adv-x="1152" d="M0 144l486 864h180l486 -864l-108 -144h-936z" />
<glyph unicode="&#xf08b;" d="M1008 1008v-1008h-1008v1008h1008z" />
<glyph unicode="&#xf08c;" d="M1008 504q0 -208 -148 -356t-356 -148t-356 148t-148 356t148 356t356 148t356 -148t148 -356z" />
<glyph unicode="&#xf08d;" horiz-adv-x="1152" d="M864 0h-576l-288 504l288 504h576l288 -504z" />
<glyph unicode="&#xf08e;" d="M713 0h-418l-295 295v418l295 295h418l295 -295v-418z" />
<glyph unicode="&#xf090;" d="M504 792l504 -414l-144 -162l-360 288l-360 -288l-144 162z" />
<glyph unicode="&#xf091;" d="M1008 630l-504 -414l-504 414l144 162l360 -288l360 288z" />
<glyph unicode="&#xf092;" horiz-adv-x="576" d="M414 0l-414 504l414 504l162 -144l-288 -360l288 -360z" />
<glyph unicode="&#xf093;" horiz-adv-x="576" d="M576 504l-414 -504l-162 144l288 360l-288 360l162 144z" />
<glyph unicode="&#xf094;" d="M504 576l504 -414l-144 -162l-360 288l-360 -288l-144 162zM504 1008l504 -414l-144 -162l-360 288l-360 -288l-144 162z" />
<glyph unicode="&#xf095;" d="M1008 414l-504 -414l-504 414l144 162l360 -288l360 288zM1008 846l-504 -414l-504 414l144 162l360 -288l360 288z" />
<glyph unicode="&#xf096;" d="M432 504l414 504l162 -144l-288 -360l288 -360l-162 -144zM0 504l414 504l162 -144l-288 -360l288 -360l-162 -144z" />
<glyph unicode="&#xf097;" d="M162 1008l414 -504l-414 -504l-162 144l288 360l-288 360zM594 1008l414 -504l-414 -504l-162 144l288 360l-288 360z" />
<glyph unicode="&#xf098;" d="M0 594l504 414l504 -414l-144 -162l-252 216v-648h-216v648l-252 -216z" />
<glyph unicode="&#xf099;" d="M504 0l-504 414l144 162l252 -216v648h216v-648l252 216l144 -162z" />
<glyph unicode="&#xf09a;" d="M0 504l414 504l162 -144l-216 -252h648v-216h-648l216 -252l-162 -144z" />
<glyph unicode="&#xf09b;" d="M594 1008l414 -504l-414 -504l-162 144l216 252h-648v216h648l-216 252z" />
<glyph unicode="&#xf09c;" horiz-adv-x="1152" d="M216 288v-288h-216v288h216zM504 648v-648h-216v648h216zM792 432v-432h-216v432h216zM1080 1008v-1008h-216v1008h216z" />
<glyph unicode="&#xf09d;" d="M432 864v-432h432q0 -179 -126.5 -305.5t-305.5 -126.5t-305.5 126.5t-126.5 305.5t126.5 305.5t305.5 126.5zM1008 504h-504v504q208 0 356 -148t148 -356z" />
<glyph unicode="&#xf09e;" />
<glyph unicode="&#xf0a0;" d="M0 504q0 208 148 356t356 148t356 -148t148 -356t-148 -356t-356 -148t-356 148t-148 356zM861 501l-357 357l-357 -357l102 -102l183 183v-438h144v438l183 -183z" />
<glyph unicode="&#xf0a1;" d="M1008 504q0 -208 -148 -356t-356 -148t-356 148t-148 356t148 356t356 148t356 -148t148 -356zM147 507l357 -357l357 357l-102 102l-183 -183v438h-144v-438l-183 183z" />
<glyph unicode="&#xf0a2;" d="M150 504l357 -357l102 102l-183 183h438v144h-438l183 183l-102 102zM504 1008q208 0 356 -148t148 -356t-148 -356t-356 -148t-356 148t-148 356t148 356t356 148z" />
<glyph unicode="&#xf0a3;" d="M504 1008q208 0 356 -148t148 -356t-148 -356t-356 -148t-356 148t-148 356t148 356t356 148zM501 147l357 357l-357 357l-102 -102l183 -183h-438v-144h438l-183 -183z" />
<glyph unicode="&#xf0a4;" horiz-adv-x="864" d="M432 756l432 -432l-54 -108h-756l-54 108z" />
<glyph unicode="&#xf0a5;" horiz-adv-x="864" d="M810 720l54 -108l-432 -432l-432 432l54 108h756z" />
<glyph unicode="&#xf0a6;" horiz-adv-x="576" d="M576 882v-756l-108 -54l-432 432l432 432z" />
<glyph unicode="&#xf0a7;" horiz-adv-x="576" d="M108 936l432 -432l-432 -432l-108 54v756z" />
<glyph unicode="&#xf0a8;" horiz-adv-x="576" d="M0 720l288 288l288 -288l-18 -72h-162v-648h-216v648h-162z" />
<glyph unicode="&#xf0a9;" horiz-adv-x="576" d="M288 0l-288 288l18 72h162v648h216v-648h162l18 -72z" />
<glyph unicode="&#xf0aa;" d="M0 504l288 288l72 -18v-162h648v-216h-648v-162l-72 -18z" />
<glyph unicode="&#xf0ab;" d="M720 792l288 -288l-288 -288l-72 18v162h-648v216h648v162z" />
<glyph unicode="&#xf0ac;" horiz-adv-x="864" d="M648 306q0 38 -26 64t-64 26h-342v-180h342q38 0 64 26t26 64zM612 702q0 38 -26 64t-64 26h-306v-180h306q38 0 64 26t26 64zM864 306q0 -127 -89.5 -216.5t-216.5 -89.5h-558v1008h522q127 0 216.5 -89.5t89.5 -216.5q0 -118 -86 -186q122 -68 122 -210z" />
<glyph unicode="&#xf0ad;" horiz-adv-x="864" d="M786 792h-139l-210 -576h141l-78 -216h-500l78 216h129l210 576h-131l78 216h500z" />
<glyph unicode="&#xf0ae;" horiz-adv-x="864" d="M864 144v-144h-864v144h864zM864 1008v-378q0 -174 -125 -294t-307 -120t-307 120t-125 294v378h216v-378q0 -86 61 -142t155 -56t155 56t61 142v378h216z" />
<glyph unicode="&#xf0b0;" d="M774 414q0 -68 -22 -124t-51 -92t-86 -93q-107 -105 -255 -105q-149 0 -254.5 105t-105.5 255q0 83 34 150t99 132l48 -22q-8 -98 33 -191q-16 -31 -16 -69q0 -67 47.5 -114.5t114.5 -47.5q66 0 119 51l21 21l21 21t17.5 19.5t16 22.5t11 22.5t8.5 28t2 30.5q0 25 -7 47 t-23.5 44.5t-27.5 35t-36.5 37t-33.5 32.5l140 140q91 -92 119 -130q67 -92 67 -206zM1008 648q0 -151 -119 -268l-61 27q2 90 -34 171q16 35 16 70q0 67 -46.5 114t-113.5 47q-69 0 -121 -50l-21 -21l-21 -21t-17.5 -19.5t-16 -22.5t-11 -22.5t-8.5 -28t-2 -30.5 q0 -25 7 -47.5t23 -44t27.5 -34.5t36.5 -37t34 -33l-140 -140q-90 90 -115 123q-71 93 -71 213q0 75 36 151t93.5 133.5t133.5 93.5t151 36q149 0 254.5 -105.5t105.5 -254.5z" />
<glyph unicode="&#xf0b1;" d="M1008 649q0 -102 -53 -187l-42 19q-14 114 -104 187q-8 60 -53.5 101t-106.5 41q-67 0 -114 -47l-290 -290v0q-47 -47 -47 -114q0 -66 47.5 -113.5t113.5 -47.5q67 0 114 47q5 5 30 29l50 48t51 50.5t42.5 47t16.5 27.5q0 13 -9.5 22t-21.5 9q-8 0 -30 -17.5t-53.5 -48.5 t-55 -55t-54.5 -57l-31 -32l-140 140l202 201q65 67 162 67q95 0 162 -67t67 -162q0 -93 -67 -162l-181 -180q-50 -50 -116.5 -77.5t-137.5 -27.5q-149 0 -254 105t-105 254q0 71 27.5 138t77.5 116l290 290q49 50 116 77.5t138 27.5q149 0 254 -105t105 -254z" />
<glyph unicode="&#xf0b2;" d="M1008 0h-1008v198h1008v-198zM648 270h-648v198h648v-198zM1008 540h-1008v198h1008v-198zM648 810h-648v198h648v-198z" />
<glyph unicode="&#xf0b3;" d="M1008 0h-1008v198h1008v-198zM792 270h-576v198h576v-198zM1008 540h-1008v198h1008v-198zM792 810h-576v198h576v-198z" />
<glyph unicode="&#xf0b4;" d="M1008 0h-1008v198h1008v-198zM1008 270h-648v198h648v-198zM1008 540h-1008v198h1008v-198zM1008 810h-648v198h648v-198z" />
<glyph unicode="&#xf0b5;" d="M1008 0h-1008v198h1008v-198zM1008 270h-1008v198h1008v-198zM1008 540h-1008v198h1008v-198zM1008 810h-1008v198h1008v-198z" />
<glyph unicode="&#xf0b6;" d="M1008 954l-395 -450l395 -450q-69 -63 -157 -56t-148 75l-234 267l-49 -55q12 -33 12 -69q0 -89 -63.5 -152.5t-152.5 -63.5t-152.5 63.5t-63.5 152.5t63.5 152.5t152.5 63.5q25 0 42 -4l67 76l-67 76q-17 -4 -42 -4q-89 0 -152.5 63.5t-63.5 152.5t63.5 152.5 t152.5 63.5t152.5 -63.5t63.5 -152.5q0 -36 -12 -69l49 -55l234 267q59 66 147 70.5t158 -51.5zM162 792q0 -22 16 -38t38 -16t38 16t16 38t-16 38t-38 16t-38 -16t-16 -38zM216 162q22 0 38 16t16 38t-16 38t-38 16t-38 -16t-16 -38t16 -38t38 -16z" />
<glyph unicode="&#xf0b7;" d="M216 1008h792v-792h-792v792zM144 144h648v-144h-792v792h144v-648z" />
<glyph unicode="&#xf0b8;" horiz-adv-x="864" d="M432 720q30 0 51 21t21 51t-21 51t-51 21t-51 -21t-21 -51t21 -51t51 -21zM432 1008q68 0 124.5 -39.5t79.5 -104.5h228v-864h-864v864h228q23 65 79.5 104.5t124.5 39.5z" />
<glyph unicode="&#xf0b9;" horiz-adv-x="1152" d="M0 936h1152v-864h-1152v864zM1008 216v108l-180 180l-108 -108l-324 324l-252 -252v-252h864zM900 576q45 0 76.5 31.5t31.5 76.5t-31.5 76.5t-76.5 31.5t-76.5 -31.5t-31.5 -76.5t31.5 -76.5t76.5 -31.5z" />
<glyph unicode="&#xf0ba;" horiz-adv-x="1152" d="M612 72v216h540v-216h-540zM540 576v-216h-540v216h540zM0 288h540v-216h-540v216zM0 936h1152v-288h-1152v288zM612 360v216h540v-216h-540z" />
<glyph unicode="&#xf0bb;" horiz-adv-x="1152" d="M288 180q0 -60 -42 -102t-102 -42t-102 42t-42 102t42 102t102 42t102 -42t42 -102zM288 504q0 -60 -42 -102t-102 -42t-102 42t-42 102t42 102t102 42t102 -42t42 -102zM288 828q0 -60 -42 -102t-102 -42t-102 42t-42 102t42 102t102 42t102 -42t42 -102zM1152 288v-216 h-792v216h792zM1152 936v-216h-792v216h792zM1152 612v-216h-792v216h792z" />
<glyph unicode="&#xf0bc;" horiz-adv-x="1152" d="M360 144v-144h-342v148l33 21q63 39 114 87t51 69q0 14 -10.5 24.5t-25.5 10.5q-31 0 -65 -44q-15 -20 -18 -23l-97 98q2 3 8 11q77 102 172 102q74 0 127 -53t53 -127q0 -83 -104 -180h104zM288 1008v-468h-144v246l-36 -41l-108 94l147 169h141zM432 288v-216h720v216 h-720zM432 936v-216h720v216h-720zM432 612v-216h720v216h-720z" />
<glyph unicode="&#xf0bd;" d="M1008 198v-198h-1008v198h1008zM72 738l216 -234l-216 -234l-72 36v396zM1008 468v-198h-648v198h648zM1008 738v-198h-648v198h648zM1008 1008v-198h-1008v198h1008z" />
<glyph unicode="&#xf0be;" d="M0 504l216 -234l72 36v396l-72 36zM1008 0h-1008v198h1008v-198zM1008 270h-648v198h648v-198zM1008 540h-648v198h648v-198zM1008 810h-1008v198h1008v-198z" />
<glyph unicode="&#xf0c0;" d="M504 1008q208 0 356 -148t148 -356t-148 -356t-356 -148q-121 0 -230 56t-180 155l176 126q41 -56 103 -88.5t131 -32.5q119 0 203.5 84.5t84.5 203.5t-84.5 203.5t-203.5 84.5q-109 0 -190 -72h118v-180h-432v468h180v-118q140 118 324 118z" />
<glyph unicode="&#xf0c1;" d="M504 1008q184 0 324 -118v118h180v-468h-432v180h118q-81 72 -190 72q-119 0 -203.5 -84.5t-84.5 -203.5t84.5 -203.5t203.5 -84.5q69 0 131 32.5t103 88.5l176 -126q-71 -99 -180 -155t-230 -56q-208 0 -356 148t-148 356t148 356t356 148z" />
<glyph unicode="&#xf0c2;" horiz-adv-x="1152" d="M1152 576v-144h-396v124q252 206 252 258q0 21 -16 35.5t-38 14.5q-46 0 -80 -54l-120 80q78 118 200 118q83 0 140.5 -57.5t57.5 -140.5q0 -81 -156 -234h156zM492 324l228 324h-264l-96 -136l-96 136h-264l228 -324l-228 -324h264l96 136l96 -136h264z" />
<glyph unicode="&#xf0c3;" horiz-adv-x="1152" d="M720 1008l-228 -324l228 -324h-264l-96 136l-96 -136h-264l228 324l-228 324h264l96 -136l96 136h264zM1152 0v144h-156q156 153 156 234q0 83 -57.5 140.5t-140.5 57.5q-122 0 -200 -118l120 -80q34 54 80 54q22 0 38 -14.5t16 -35.5q0 -52 -252 -258v-124h396z" />
<glyph unicode="&#xf0c4;" horiz-adv-x="1152" d="M522 576v-180h-162v-324h-180v324h-180v180h522zM1152 936v-216h-288v-648h-216v648h-288v216h792z" />
<glyph unicode="&#xf0c5;" d="M272 216h-233l320 792h290l320 -792h-233l-58 144h-348zM504 790l-101 -250h202zM1008 0v144h-1008v-144h1008z" />
<glyph unicode="&#xf0c6;" horiz-adv-x="1152" d="M1152 396l-144 -144l144 -144l-108 -108l-144 144l-144 -144l-108 108l144 144l-144 144l108 108l144 -144l144 144zM260 360l157 432h-234l79 216h648l-79 -216h-184l-158 -432h-229zM52 288h612l-52 -144h-612z" />
<glyph unicode="&#xf0c7;" d="M720 396q0 29 -25 51.5t-61.5 34t-70.5 17t-60 5.5h-71q-30 0 -51 21t-21 51t21 51t51 21h54v-54q0 -22 16 -38t38 -16t38 16t16 38v72q14 14 23 23.5t15.5 21t9.5 16.5t4.5 20l2 20t0 28t-0.5 33q0 38 -26 64t-64 26h-126q-89 0 -152.5 -63.5t-63.5 -152.5v-102 q0 -29 10.5 -53.5t22.5 -38t38 -39.5q37 -37 89 -37h55q0 -6 0.5 -18t0.5 -18q0 -23 23.5 -48.5t48.5 -41.5v-182q0 -15 10.5 -25.5t25.5 -10.5q20 0 30 17l121 191q29 46 29 100zM1008 504q0 -208 -148 -356t-356 -148t-356 148t-148 356t148 356t356 148t356 -148 t148 -356z" />
<glyph unicode="&#xf0c8;" horiz-adv-x="1152" d="M324 324q0 30 -21 51t-51 21t-51 -21t-21 -51t21 -51t51 -21t51 21t21 51zM396 540q0 30 -21 51t-51 21t-51 -21t-21 -51t21 -51t51 -21t51 21t21 51zM612 612q0 30 -21 51t-51 21t-51 -21t-21 -51t21 -51t51 -21t51 21t21 51zM916 448l76 76l-88 88l88 88l-76 76 l-88 -88l-88 88l-76 -76l88 -88l-88 -88l76 -76l88 88zM1152 864v-864l-360 144l-432 -144l-360 144v864l360 -144l432 144z" />
<glyph unicode="&#xf0c9;" d="M0 360v162l918 486l90 -90l-486 -918h-162v360h-360z" />
<glyph unicode="&#xf0ca;" horiz-adv-x="720" d="M360 1008q149 0 254.5 -105.5t105.5 -254.5q0 -90 -39 -162l-267 -486h-108l-267 486q-39 72 -39 162q0 149 105.5 254.5t254.5 105.5zM360 540q45 0 76.5 31.5t31.5 76.5t-31.5 76.5t-76.5 31.5t-76.5 -31.5t-31.5 -76.5t31.5 -76.5t76.5 -31.5z" />
<glyph unicode="&#xf0cb;" horiz-adv-x="720" d="M432 303q-52 -15 -108 -15t-108 15v-303h216v303zM324 1008q134 0 229 -95t95 -229t-95 -229t-229 -95t-229 95t-95 229t95 229t229 95zM216 720q30 0 51 21t21 51t-21 51t-51 21t-51 -21t-21 -51t21 -51t51 -21z" />
<glyph unicode="&#xf0cc;" horiz-adv-x="1152" d="M936 442v-442h-252v288h-216v-288h-252v442l360 293zM936 716l216 -176l-90 -108l-486 396l-486 -396l-90 108l576 468l216 -175v175h144v-292z" />
<glyph unicode="&#xf0cd;" horiz-adv-x="720" d="M0 1008h720v-1008h-288v216h-144v-216h-288v1008zM288 432v144h-144v-144h144zM288 720v144h-144v-144h144zM576 432v144h-144v-144h144zM576 720v144h-144v-144h144z" />
<glyph unicode="&#xf0ce;" d="M648 504l360 216v-720h-1008v1008h288v-504l360 216v-216z" />
<glyph unicode="&#xf0d0;" horiz-adv-x="1152" d="M1152 1008v-792h-406l118 -108v-108h-576v108l118 108h-406v792h1152zM936 432v360h-720v-360h720z" />
<glyph unicode="&#xf0d1;" horiz-adv-x="1152" d="M1008 1008v-720h-864v720h864zM792 504v288h-432v-288h432zM0 216h1152v-216h-1152v216z" />
<glyph unicode="&#xf0d2;" horiz-adv-x="864" d="M504 144q0 30 -21 51t-51 21t-51 -21t-21 -51t21 -51t51 -21t51 21t21 51zM180 288h504v540h-504v-540zM864 1008v-1008h-864v1008h864z" />
<glyph unicode="&#xf0d3;" horiz-adv-x="720" d="M396 144q0 30 -21 51t-51 21t-51 -21t-21 -51t21 -51t51 -21t51 21t21 51zM180 288h288v540h-288v-540zM648 1008v-1008h-648v1008h648z" />
<glyph unicode="&#xf0d4;" horiz-adv-x="1152" d="M0 144v792h1152v-792h-288v-72h-576v72h-288zM216 720v-360h720v360h-720z" />
<glyph unicode="&#xf0d5;" d="M504 1008q208 0 356 -148t148 -356t-148 -356t-356 -148t-356 148t-148 356t148 356t356 148zM504 360q59 0 101.5 42.5t42.5 101.5t-42.5 101.5t-101.5 42.5t-101.5 -42.5t-42.5 -101.5t42.5 -101.5t101.5 -42.5z" />
<glyph unicode="&#xf0d6;" d="M648 288l360 -108l-36 -180h-936l-36 180l360 108v30q-98 44 -157 133.5t-59 196.5q0 149 105.5 254.5t254.5 105.5t254.5 -105.5t105.5 -254.5q0 -107 -59 -196.5t-157 -133.5v-30z" />
<glyph unicode="&#xf0d7;" d="M648 270l360 -108l-36 -162h-936l-36 162l360 108v43q-32 3 -73 9.5t-99 20t-96 37t-38 52.5q48 0 83 34t35 82q0 8 -2 24q-8 40 -8 76q0 146 98.5 253t243.5 107t243.5 -107t98.5 -253q0 -36 -8 -76q-2 -16 -2 -24q0 -48 35 -82t83 -34q0 -29 -38 -52.5t-96 -37t-99 -20 t-73 -9.5v-43z" />
<glyph unicode="&#xf0d8;" horiz-adv-x="1152" d="M1152 792q0 -39 -19.5 -72.5t-52.5 -52.5v-595h-1008v595q-33 19 -52.5 52.5t-19.5 72.5q0 60 42 102t102 42t102 -42t42 -102q0 -55 -37 -96.5t-92 -46.5l201 -289l157 301q-38 17 -61.5 52.5t-23.5 78.5q0 60 42 102t102 42t102 -42t42 -102q0 -43 -23.5 -78.5 t-61.5 -52.5l157 -301l201 289q-55 5 -92 46.5t-37 96.5q0 60 42 102t102 42t102 -42t42 -102z" />
<glyph unicode="&#xf0d9;" horiz-adv-x="1152" d="M144 216h144v72h-144v-72zM360 216h288v72h-288v-72zM72 504h1008v216h-1008v-216zM1152 936v-864h-1152v864h1152z" />
<glyph unicode="&#xf0da;" horiz-adv-x="1152" d="M648 288v-288h-216v288h216zM1080 576v-216h-1080v216h1080zM1008 1008v-216h-360v-144h-216v144h-360v216h936z" />
<glyph unicode="&#xf0db;" d="M1008 288v-216h-1008v216h1008zM504 936l504 -468l-72 -108h-864l-72 108z" />
<glyph unicode="&#xf0dc;" horiz-adv-x="1152" d="M1152 468q0 -74 -53 -127t-127 -53t-127 53t-53 127t53 127t127 53t127 -53t53 -127zM756 468q0 -74 -53 -127t-127 -53t-127 53t-53 127t53 127t127 53t127 -53t53 -127zM360 468q0 -74 -53 -127t-127 -53t-127 53t-53 127t53 127t127 53t127 -53t53 -127z" />
<glyph unicode="&#xf0dd;" horiz-adv-x="432" d="M216 0q-67 0 -114.5 47.5t-47.5 114.5t47.5 114.5t114.5 47.5t114.5 -47.5t47.5 -114.5t-47.5 -114.5t-114.5 -47.5zM216 342q-67 0 -114.5 47.5t-47.5 114.5t47.5 114.5t114.5 47.5t114.5 -47.5t47.5 -114.5t-47.5 -114.5t-114.5 -47.5zM216 684q-67 0 -114.5 47.5 t-47.5 114.5t47.5 114.5t114.5 47.5t114.5 -47.5t47.5 -114.5t-47.5 -114.5t-114.5 -47.5z" />
<glyph unicode="&#xf0de;" />
<glyph unicode="&#xf0e0;" />
<glyph unicode="&#xf0e1;" />
<glyph unicode="&#xf0e2;" />
<glyph unicode="&#xf0e3;" />
<glyph unicode="&#xf0e4;" />
<glyph unicode="&#xf0e5;" />
<glyph unicode="&#xf0e6;" />
<glyph unicode="&#xf0e7;" />
<glyph unicode="&#xf0e8;" />
<glyph unicode="&#xf0e9;" />
<glyph unicode="&#xf0ea;" />
<glyph unicode="&#xf0eb;" />
<glyph unicode="&#xf0ec;" />
<glyph unicode="&#xf0ed;" />
<glyph unicode="&#xf0ee;" />
<glyph unicode="&#xf0f0;" />
<glyph unicode="&#xf0f1;" />
<glyph unicode="&#xf0f2;" />
<glyph unicode="&#xf0f3;" />
<glyph unicode="&#xf0f4;" />
<glyph unicode="&#xf0f5;" />
<glyph unicode="&#xf0f6;" />
<glyph unicode="&#xf0f7;" />
<glyph unicode="&#xf0f8;" />
<glyph unicode="&#xf0f9;" />
<glyph unicode="&#xf0fa;" />
<glyph unicode="&#xf0fb;" />
<glyph unicode="&#xf0fc;" />
<glyph unicode="&#xf0fd;" />
<glyph unicode="&#xf0fe;" />
<glyph unicode="&#xf100;" />
<glyph unicode="&#xf101;" />
<glyph unicode="&#xf102;" />
<glyph unicode="&#xf103;" />
<glyph unicode="&#xf104;" />
<glyph unicode="&#xf105;" />
<glyph unicode="&#xf106;" />
<glyph unicode="&#xf107;" />
<glyph unicode="&#xf108;" />
<glyph unicode="&#xf109;" />
<glyph unicode="&#xf10a;" />
<glyph unicode="&#xf10b;" />
<glyph unicode="&#xf10c;" />
<glyph unicode="&#xf10d;" />
<glyph unicode="&#xf10e;" />
<glyph unicode="&#xf110;" />
<glyph unicode="&#xf111;" />
<glyph unicode="&#xf112;" />
<glyph unicode="&#xf113;" />
<glyph unicode="&#xf114;" />
<glyph unicode="&#xf115;" />
<glyph unicode="&#xf116;" />
<glyph unicode="&#xf117;" />
<glyph unicode="&#xf118;" />
<glyph unicode="&#xf119;" />
<glyph unicode="&#xf11a;" />
<glyph unicode="&#xf11b;" />
<glyph unicode="&#xf11c;" />
<glyph unicode="&#xf11d;" />
<glyph unicode="&#xf11e;" />
<glyph unicode="&#xf120;" />
<glyph unicode="&#xf121;" />
<glyph unicode="&#xf122;" />
<glyph unicode="&#xf123;" />
<glyph unicode="&#xf124;" />
<glyph unicode="&#xf125;" />
<glyph unicode="&#xf126;" />
<glyph unicode="&#xf127;" />
<glyph unicode="&#xf128;" />
<glyph unicode="&#xf129;" />
<glyph unicode="&#xf12a;" />
<glyph unicode="&#xf12b;" />
<glyph unicode="&#xf12c;" />
<glyph unicode="&#xf12d;" />
<glyph unicode="&#xf12e;" />
<glyph unicode="&#xf130;" />
<glyph unicode="&#xf131;" />
<glyph unicode="&#xf132;" />
<glyph unicode="&#xf133;" />
<glyph unicode="&#xf134;" />
<glyph unicode="&#xf135;" />
<glyph unicode="&#xf136;" />
<glyph unicode="&#xf137;" />
<glyph unicode="&#xf138;" />
<glyph unicode="&#xf139;" />
<glyph unicode="&#xf13a;" />
<glyph unicode="&#xf13b;" />
<glyph unicode="&#xf13c;" />
<glyph unicode="&#xf13d;" />
<glyph unicode="&#xf13e;" />
<glyph unicode="&#xf140;" />
<glyph unicode="&#xf141;" />
<glyph unicode="&#xf142;" />
<glyph unicode="&#xf143;" />
<glyph unicode="&#xf144;" />
<glyph unicode="&#xf145;" />
<glyph unicode="&#xf146;" />
<glyph unicode="&#xf147;" />
<glyph unicode="&#xf148;" />
<glyph unicode="&#xf149;" />
<glyph unicode="&#xf14a;" />
<glyph unicode="&#xf14b;" />
<glyph unicode="&#xf14c;" />
<glyph unicode="&#xf14d;" />
<glyph unicode="&#xf14e;" />
<glyph unicode="&#xf150;" />
<glyph unicode="&#xf151;" />
<glyph unicode="&#xf152;" />
<glyph unicode="&#xf153;" />
<glyph unicode="&#xf154;" />
<glyph unicode="&#xf155;" />
<glyph unicode="&#xf156;" />
<glyph unicode="&#xf157;" />
<glyph unicode="&#xf158;" />
<glyph unicode="&#xf159;" />
<glyph unicode="&#xf15a;" />
<glyph unicode="&#xf15b;" />
<glyph unicode="&#xf15c;" />
<glyph unicode="&#xf15d;" />
<glyph unicode="&#xf15e;" />
<glyph unicode="&#xf160;" />
<glyph unicode="&#xf161;" />
<glyph unicode="&#xf162;" />
<glyph unicode="&#xf163;" />
<glyph unicode="&#xf164;" />
<glyph unicode="&#xf165;" />
<glyph unicode="&#xf166;" />
<glyph unicode="&#xf167;" />
<glyph unicode="&#xf168;" />
<glyph unicode="&#xf169;" />
<glyph unicode="&#xf16a;" />
<glyph unicode="&#xf16b;" />
<glyph unicode="&#xf16c;" />
<glyph unicode="&#xf16d;" />
<glyph unicode="&#xf16e;" />
<glyph unicode="&#xf170;" />
<glyph unicode="&#xf171;" />
<glyph unicode="&#xf172;" />
<glyph unicode="&#xf173;" />
<glyph unicode="&#xf174;" />
<glyph unicode="&#xf175;" />
<glyph unicode="&#xf176;" />
<glyph unicode="&#xf177;" />
<glyph unicode="&#xf178;" />
<glyph unicode="&#xf179;" />
<glyph unicode="&#xf17a;" />
<glyph unicode="&#xf17b;" />
<glyph unicode="&#xf17c;" />
<glyph unicode="&#xf17d;" />
<glyph unicode="&#xf17e;" />
<glyph unicode="&#xf180;" />
<glyph unicode="&#xf181;" />
<glyph unicode="&#xf182;" />
<glyph unicode="&#xf183;" />
<glyph unicode="&#xf184;" />
<glyph unicode="&#xf185;" />
<glyph unicode="&#xf186;" />
<glyph unicode="&#xf187;" />
<glyph unicode="&#xf188;" />
<glyph unicode="&#xf189;" />
<glyph unicode="&#xf18a;" />
<glyph unicode="&#xf18b;" />
<glyph unicode="&#xf18c;" />
<glyph unicode="&#xf18d;" />
<glyph unicode="&#xf18e;" />
<glyph unicode="&#xf190;" />
<glyph unicode="&#xf191;" />
<glyph unicode="&#xf192;" />
<glyph unicode="&#xf193;" />
<glyph unicode="&#xf194;" />
<glyph unicode="&#xf195;" />
<glyph unicode="&#xf196;" />
<glyph unicode="&#xf197;" />
<glyph unicode="&#xf198;" />
<glyph unicode="&#xf199;" />
<glyph unicode="&#xf19a;" />
<glyph unicode="&#xf19b;" />
<glyph unicode="&#xf19c;" />
<glyph unicode="&#xf19d;" />
<glyph unicode="&#xf19e;" />
</font>
</defs>
</svg>
