<?xml version="1.0" standalone="no"?>
<!DOCTYPE svg PUBLIC "-//W3C//DTD SVG 1.1//EN" "http://www.w3.org/Graphics/SVG/1.1/DTD/svg11.dtd" >
<svg xmlns="http://www.w3.org/2000/svg" xmlns:xlink="http://www.w3.org/1999/xlink" version="1.1">
<metadata></metadata>
<defs>
<font id="font_awesome_brandsregular" horiz-adv-x="1008" >
<font-face units-per-em="1008" ascent="1008" descent="0" />
<missing-glyph horiz-adv-x="252" />
<glyph unicode=" "  horiz-adv-x="252" />
<glyph unicode="&#x09;" horiz-adv-x="252" />
<glyph unicode="&#xa0;" horiz-adv-x="252" />
<glyph unicode="&#xa8;" />
<glyph unicode="&#xa9;" />
<glyph unicode="&#xae;" />
<glyph unicode="&#xb1;" />
<glyph unicode="&#xb4;" />
<glyph unicode="&#xc6;" />
<glyph unicode="&#xd8;" />
<glyph unicode="&#x2122;" />
<glyph unicode="&#x221e;" />
<glyph unicode="&#x2260;" />
<glyph unicode="&#x2265;" />
<glyph unicode="&#x25fc;" horiz-adv-x="500" d="M0 0z" />
<glyph unicode="&#xf000;" d="M952 1008q23 0 39.5 -16.5t16.5 -39.5v-896q0 -23 -16.5 -39.5t-39.5 -16.5h-256v390h131l19 152h-150v98q0 37 15.5 55.5t59.5 18.5h80v136q-39 6 -117 6q-89 0 -142.5 -52.5t-53.5 -148.5v-113h-131v-152h131v-390h-482q-23 0 -39.5 16.5t-16.5 39.5v896 q0 23 16.5 39.5t39.5 16.5h896z" />
<glyph unicode="&#xf001;" horiz-adv-x="576" d="M366 0h-185v460h-155v179h155v132q0 112 63 174.5t167 62.5q79 0 139 -7v-160h-95q-52 0 -70.5 -22t-18.5 -66v-114h177l-23 -179h-154v-460z" />
<glyph unicode="&#xf002;" horiz-adv-x="1152" d="M1152 861q-50 -73 -118 -122q1 -10 1 -31q0 -95 -27.5 -190t-84.5 -181.5t-135.5 -153.5t-189 -107t-236.5 -40q-196 0 -362 106q27 -3 56 -3q164 0 294 101q-77 1 -137.5 47t-83.5 117q20 -4 45 -4q30 0 62 8q-82 17 -136 82t-54 150v3q48 -27 107 -30q-48 33 -76.5 85 t-28.5 112q0 63 32 119q89 -109 215.5 -174.5t271.5 -72.5q-6 26 -6 54q0 98 69.5 167t167.5 69q102 0 172 -75q81 16 150 58q-26 -85 -104 -131q75 9 136 37z" />
<glyph unicode="&#xf003;" d="M390 164h152v254q0 26 5 37q23 56 78 56q77 0 77 -103v-244h153v261q0 101 -48.5 153t-127.5 52q-88 0 -138 -77h1v66h-152q2 -43 0 -455zM229 682q40 0 63.5 22t23.5 56q-1 35 -24 57t-62 22q-38 0 -62 -22.5t-24 -56.5t23 -56t61 -22h1zM153 164h153v455h-153v-455z M0 72v864q0 30 21.5 51t52.5 21h860q31 0 52.5 -21t21.5 -51v-864q0 -30 -21.5 -51t-52.5 -21h-860q-31 0 -52.5 21t-21.5 51z" />
<glyph unicode="&#xf004;" horiz-adv-x="1149" d="M286 0h-227v678h227v-678zM172 771h-1q-56 0 -91 33.5t-35 83.5q0 51 35.5 84.5t93.5 33.5q57 0 91.5 -33.5t35.5 -84.5q0 -50 -35.5 -83.5t-93.5 -33.5zM411 0v678h227v-98h-1q72 114 206 114q117 0 189 -77.5t72 -227.5v-389h-227v363q0 153 -115 153q-44 0 -73 -24 t-43 -58q-8 -20 -8 -55v-379h-227z" />
<glyph unicode="&#xf005;" d="M892 0h-776q-48 0 -82 34t-34 82v776q0 48 34 82t82 34h776q48 0 82 -34t34 -82v-776q0 -48 -34 -82t-82 -34zM504 698q-80 0 -137 -57t-57 -137t57 -137t137 -57t137 57t57 137t-57 137t-137 57zM892 737v116q0 16 -11.5 27.5t-27.5 11.5h-116q-16 0 -27.5 -11.5 t-11.5 -27.5v-116q0 -17 11 -28t28 -11h116q16 0 27.5 11.5t11.5 27.5zM892 155v427h-88q10 -37 10 -78q0 -128 -91 -219t-219 -91t-219 91t-91 219q0 35 10 78h-88v-427q0 -16 11.5 -27.5t27.5 -11.5h698q16 0 27.5 11.5t11.5 27.5z" />
<glyph unicode="&#xf006;" d="M504 1008q208 0 356 -148t148 -356q0 -165 -96 -296t-248 -182q-18 -3 -26.5 4.5t-8.5 19.5q0 2 0.5 50t0.5 88q0 63 -35 94q38 4 68 11.5t61.5 25.5t52.5 44t34.5 68.5t13.5 98.5q0 79 -51 136q24 58 -5 133q-19 6 -54 -7t-60 -29l-25 -16q-62 17 -126 17t-126 -17 q-11 7 -28 18t-54.5 25.5t-56.5 8.5q-29 -75 -5 -133q-52 -58 -52 -136q0 -56 13.5 -98.5t34.5 -68.5t53 -44t61.5 -26t67.5 -12q-25 -21 -32 -67q-21 -9 -42 -13t-52.5 7.5t-52.5 47.5q-12 21 -31.5 34t-32.5 16l-13 2q-14 0 -19 -3t-3 -8t6 -9.5t8 -7.5l5 -3 q15 -7 29 -25.5t20 -33.5l7 -15q8 -27 28.5 -44t44 -22t45.5 -5.5t37 2.5l14 2q1 -42 1 -86q0 -12 -8.5 -19.5t-25.5 -4.5q-153 50 -249 181.5t-96 296.5q0 208 148 356t356 148z" />
<glyph unicode="&#xf007;" horiz-adv-x="1152" d="M757 468q38 -2 62 -38t24 -91q0 -54 -25 -91.5t-61 -37.5t-60.5 37.5t-24.5 91.5t24 90.5t61 38.5zM395 468q37 -2 61 -38.5t24 -90.5t-24.5 -91.5t-60.5 -37.5q-37 0 -61.5 37t-24.5 92t24 91t62 38zM576 107q207 0 305 34q123 41 126 208q2 83 -74 148q-56 48 -152 43 q-95 -5 -205 -9q-115 5 -206 9q-95 5 -151 -43q-76 -65 -74 -148q3 -167 126 -208q98 -34 305 -34zM1059 731q94 -103 93 -241q-3 -271 -163 -366q-148 -88 -414 -88t-413 88q-159 95 -162 366q-1 138 93 241q-10 22 -16 81q-8 65 27 158q-4 7 58 -3q60 -7 189 -91 q225 52 450 0q129 84 188 91q63 9 59 3q35 -93 27 -158q-6 -59 -16 -81z" />
<glyph unicode="&#xf008;" d="M383 808q51 0 82 -53t31 -109q0 -39 -23 -62q-25 -27 -60 -27q-52 0 -82 51t-30 106q0 42 20.5 68t61.5 26zM427 418q4 0 10.5 -0.5t9.5 -0.5q3 -2 15.5 -10.5t17 -12t15.5 -12t16 -14t13 -14.5t11.5 -16.5t6.5 -17.5t3 -20q0 -49 -39.5 -72t-92.5 -23q-59 0 -108 26.5 t-49 81.5q0 39 30.5 64t66 33t74.5 8zM513 805h53l58 36h-186q-45 0 -81.5 -8.5t-68 -27t-49 -52t-17.5 -80.5q0 -61 43.5 -99.5t104.5 -38.5q11 0 29 2q-9 -22 -9 -35q0 -26 27 -60q-112 -6 -171 -40q-69 -42 -69 -108q0 -45 32.5 -75.5t73 -41t84.5 -10.5q67 0 126.5 23.5 t90.5 73.5q21 34 21 71q0 38 -20.5 68.5t-45 46.5t-45 35t-20.5 36q0 16 15.5 33t34.5 30.5t34.5 41t15.5 63.5q0 68 -61 116zM847 498v43h-89v89h-45v-89h-89v-43h89v-89h45v89h89zM53 1008h902q22 0 37.5 -15.5t15.5 -37.5v-902q0 -22 -15.5 -37.5t-37.5 -15.5h-902 q-22 0 -37.5 15.5t-15.5 37.5v902q0 22 15.5 37.5t37.5 15.5z" />
<glyph unicode="&#xf009;" d="M1005 560v-65h-133v-132h-67v132h-133v65h133v133h67v-133h133zM585 955h-79q46 -38 69 -78t23 -96q0 -44 -15.5 -78.5t-37.5 -56.5t-44 -40t-37.5 -37t-15.5 -40q0 -22 20 -43t49 -41.5t57.5 -45t48.5 -63t20 -86.5q0 -57 -31 -105q-47 -75 -136 -110t-189 -35 q-82 0 -154 25t-108 84q-22 39 -22 81q0 49 28.5 91t74.5 70q84 50 256 60q-40 51 -40 90q0 24 13 52q-21 -3 -43 -3q-92 0 -157 58t-65 149q0 70 26.5 120.5t73 78t101.5 40t122 12.5h279zM377 375q-42 0 -82.5 -7.5t-81.5 -23.5t-66.5 -49t-25.5 -78q0 -56 39.5 -94 t90 -52.5t105.5 -14.5q50 0 92 12.5t73.5 46.5t31.5 84q0 17 -4 32.5t-15.5 31t-18 25.5t-26.5 25.5t-25.5 20t-30.5 21.5t-26 18q-20 2 -30 2zM311 960q-62 0 -92.5 -39t-30.5 -102q0 -83 45.5 -159t121.5 -76q23 0 49 11.5t42 28.5q34 35 34 93q0 51 -18 105t-58.5 96 t-92.5 42z" />
<glyph unicode="&#xf00a;" d="M504 1008q208 0 356 -148t148 -356t-148 -356t-356 -148q-75 0 -149 22q50 85 62 133q7 23 32 119q12 -24 45 -40.5t70 -16.5q113 0 187.5 90.5t74.5 222.5q0 125 -89.5 208t-221.5 83q-155 0 -244 -89t-89 -216q0 -59 28.5 -116.5t73.5 -78.5q14 -7 17 7q1 3 3.5 13.5 t5.5 24t5 19.5q3 7 -3 14q-38 45 -38 115q0 88 62.5 153.5t165.5 65.5q93 0 151.5 -57t58.5 -148q0 -101 -45 -166t-113 -65q-38 0 -61 27t-14 64q5 20 16.5 57.5t18.5 64.5t7 46q0 31 -16.5 51t-47.5 20q-38 0 -64.5 -35t-26.5 -87q0 -45 15 -75l-59 -251q-11 -49 -2 -144 q-142 56 -231 183.5t-89 285.5q0 208 148 356t356 148z" />
<glyph unicode="&#xf00b;" horiz-adv-x="864" d="M456 1008q160 0 263 -99t103 -233q0 -172 -87 -284t-225 -112q-46 0 -86.5 21t-55.5 51l-40 -159q-11 -41 -37.5 -89t-42 -68.5t-25.5 -32.5q-3 -4 -8 -3t-6 6q0 1 -1.5 14t-3 27.5t-3 38t-1 45t3 47.5t7.5 48q11 48 75 316q-8 16 -13 39t-5 38l-1 15q0 63 32.5 106 t79.5 43q37 0 57.5 -24.5t20.5 -62.5q0 -23 -8.5 -56.5t-22.5 -78t-20 -70.5q-11 -45 17 -78.5t74 -33.5q81 0 132.5 90t51.5 218q0 98 -64 160t-177 62q-128 0 -206.5 -81.5t-78.5 -195.5q0 -68 38 -114q13 -14 8 -32l-5.5 -22t-6.5 -24q-5 -24 -29 -15q-58 24 -88 83.5 t-30 137.5q0 64 26.5 126.5t76.5 116t131 86.5t180 33z" />
<glyph unicode="&#xf00c;" d="M693 246l-30 90q-22 -11 -51 -11q-34 -1 -47 17.5t-13 44.5v196h126v95h-126v160h-92q-4 0 -5 -5q-5 -51 -32.5 -98.5t-90.5 -70.5v-81h63v-206q0 -63 48 -116t141 -52q34 1 67.5 12.5t41.5 24.5zM1008 1008v-1008h-1008v1008h1008z" />
<glyph unicode="&#xf00d;" horiz-adv-x="720" d="M601 203l49 -144q-15 -21 -68 -39.5t-107 -19.5q-78 -1 -139 24.5t-95.5 67t-51.5 87t-17 90.5v330h-102v130q54 19 93.5 53t60.5 75t31 74.5t14 68.5q0 8 7 8h148v-257h201v-152h-202v-314q0 -41 21.5 -71t75.5 -29q47 2 81 18z" />
<glyph unicode="&#xf00e;" />
<glyph unicode="&#xf010;" d="M478 489q3 -1 13 -3t17 -4t19.5 -5t20.5 -6t20 -8t18.5 -10t15.5 -12t11 -14.5t5.5 -17.5t-1.5 -20q-3 -14 -12 -23t-23.5 -12.5t-26 -5t-31.5 2t-29 5t-29 6.5l-19 5zM519 655q3 -1 14.5 -3.5t19 -4.5t21 -6t21 -8t19 -11t14.5 -14l7.5 -17.5t-0.5 -22.5 q-3 -10 -8 -17.5t-13 -11.5t-16 -6.5t-19.5 -2.5t-19 0.5t-20 3t-18.5 4t-17 4.5t-12 3zM504 1008q208 0 356 -148t148 -356t-148 -356t-356 -148t-356 148t-148 356t148 356t356 148zM744 567q13 85 -111 127l23 91l-56 13l-22 -88q-6 1 -21 4.5t-23 5.5l22 89l-55 14 l-23 -91q-24 6 -35 9l-76 19l-15 -59l40 -10q28 -7 26 -32l-26 -104q2 0 6 -2q-1 1 -3 1t-3 1l-36 -145q-8 -18 -25 -13l-41 10l-27 -64l72 -17q7 -2 20 -5.5t19 -5.5l-23 -92l56 -13l22 91q9 -3 24.5 -7t19.5 -5l-22 -90l55 -14l23 92q48 -8 85.5 -7.5t66.5 20.5t43 61 q32 92 -51 134q62 15 71 82z" />
<glyph unicode="&#xf011;" horiz-adv-x="864" d="M611 368q0 22 -9 39t-22.5 27.5t-35 18.5t-40 11.5t-45 5t-42 1.5t-39 -0.5t-28.5 -0.5v-205q3 0 25 -0.5t34 0t36.5 1.5t40 4t37 7.5t35 12.5t27 18.5t20 25.5t6.5 34zM568 656q0 23 -8.5 40t-26 26.5t-34 16t-42.5 8.5t-40 2.5t-39 0t-28 -0.5v-186q3 0 21 -0.5t28 0 t30.5 1.5t33.5 3.5t31 6.5t29.5 11t22.5 16.5t16.5 23.5t5.5 31zM795 349q-10 -103 -80 -145.5t-200 -49.5v-154h-93l1 152q-49 0 -75 1v-153h-93v154q-21 1 -66 1h-121l18 111h68q30 0 35 31v418q-9 41 -54 41h-67v99h128h59v153h93v-150q25 1 74 1v149h93v-153 q100 -8 159 -44t67 -113q11 -110 -80 -157q149 -35 134 -192z" />
<glyph unicode="&#xf012;" horiz-adv-x="1152" d="M353 1008l223 -186l-321 -199l-221 177zM34 447l221 176l321 -198l-223 -186zM576 425l321 198l221 -176l-319 -208zM1118 800l-221 -177l-321 199l223 186zM577 385l223 -186l96 63v-70l-319 -192l-320 192v70l96 -63z" />
<glyph unicode="&#xf013;" horiz-adv-x="864" d="M709 1008q54 0 91.5 -39t37.5 -95v-43h-812v43q0 56 37.5 95t91.5 39h554zM26 353h812v-43q0 -56 -37.5 -94.5t-91.5 -38.5h-37l-170 -177v177h-347q-54 0 -91.5 38.5t-37.5 94.5v43zM26 783h812v-167h-812v167zM26 568h812v-167h-812v167z" />
<glyph unicode="&#xf014;" horiz-adv-x="864" d="M595 238v-79h-400v79h400zM116 79h559v329h79v-408h-717v409h79v-330zM597 346l-4 -80l-397 22l5 79zM827 679l-65 -44l-223 328l65 45zM732 611l-53 -60l-299 261l53 60zM661 526l-36 -71l-354 181l36 71zM618 440l-19 -77l-386 93l19 78z" />
<glyph unicode="&#xf015;" d="M288 612q45 0 76.5 -31.5t31.5 -76.5t-31.5 -76.5t-76.5 -31.5t-76.5 31.5t-31.5 76.5t31.5 76.5t76.5 31.5zM882 1008q52 0 89 -37t37 -89v-756q0 -52 -37 -89t-89 -37h-756q-52 0 -89 37t-37 89v756q0 52 37 89t89 37h756zM288 324q74 0 127 53t53 127t-53 127t-127 53 t-127 -53t-53 -127t53 -127t127 -53zM720 324q74 0 127 53t53 127t-53 127t-127 53t-127 -53t-53 -127t53 -127t127 -53z" />
<glyph unicode="&#xf016;" horiz-adv-x="1152" d="M262 661q-65 0 -111 -46t-46 -111t46 -111t111 -46q64 0 110.5 46.5t46.5 110.5t-46.5 110.5t-110.5 46.5zM524 504q0 -109 -77 -185.5t-185 -76.5q-109 0 -185.5 76.5t-76.5 185.5t76.5 185.5t185.5 76.5q108 0 185 -76.5t77 -185.5zM1152 504q0 -109 -76.5 -185.5 t-185.5 -76.5q-108 0 -185 76.5t-77 185.5t77 185.5t185 76.5q109 0 185.5 -76.5t76.5 -185.5z" />
<glyph unicode="&#xf017;" d="M504 1008q180 0 308.5 -42.5t128.5 -102.5q0 -21 -74 -444q-8 -46 -111 -89.5t-252 -43.5v1v-1q-149 0 -252 43.5t-111 89.5q-74 423 -74 444q0 60 128.5 102.5t308.5 42.5v0zM504 383q58 0 98.5 40.5t40.5 98.5t-40.5 98.5t-98.5 40.5t-98.5 -40.5t-40.5 -98.5 t40.5 -98.5t98.5 -40.5zM504 818q115 0 197.5 17.5t82.5 41.5q0 25 -82 42.5t-198 17.5q-115 1 -197.5 -16.5t-82.5 -42.5t81.5 -42t198.5 -18zM818 298q15 0 15 -17v-3q-27 -144 -31 -163q-11 -49 -96.5 -82t-201.5 -33v0v0q-116 0 -201.5 33t-96.5 82q-4 19 -31 163v3 q0 17 15 17q7 0 12 -4q48 -38 123.5 -59.5t126.5 -23.5l52 -2q8 0 22 0.5t53 5t75 12.5t79 25.5t73 41.5zM574 522q0 29 -20.5 49.5t-49.5 20.5t-49.5 -20.5t-20.5 -49.5q0 -28 20.5 -48.5t49.5 -20.5t49.5 20.5t20.5 48.5z" />
<glyph unicode="&#xf018;" d="M60 1008h888l-81 -906l-364 -102l-362 102zM772 713l10 110h-556l29 -337h386l-14 -143l-124 -34l-124 34l-8 88h-110l14 -175l228 -63h2l226 63l32 343h-406l-9 114h424z" />
<glyph unicode="&#xf019;" d="M1008 960l-151 -760l-459 -152l-398 152l40 203h169l-16 -84l241 -91l277 91l39 193h-689l33 170h689l22 109h-689l34 169h858z" />
<glyph unicode="&#xf01a;" horiz-adv-x="864" d="M707 472q0 36 11 69t25 53t33 38t26 23t14 9q-63 92 -184 100q-45 4 -113 -21t-80 -25q-17 0 -74 22.5t-93 21.5q-64 -1 -119.5 -35t-88.5 -91q-42 -73 -41.5 -172t30 -184.5t75.5 -151.5q26 -39 46 -63t51 -45t62 -20q29 1 76.5 21t88.5 20q39 0 86 -20t80 -20 q32 1 62.5 21.5t48 42t44.5 60.5q52 77 69 144q-2 0 -14.5 6t-33 22t-39.5 37.5t-33 58t-15 79.5zM580 847q-28 -34 -68.5 -54.5t-80.5 -16.5q-11 80 53 156q28 32 69.5 53.5t79.5 22.5q9 -85 -53 -161z" />
<glyph unicode="&#xf01b;" d="M461 477l547 -1v-476l-546 77zM462 526v403l546 79v-478zM0 482l412 -3v-396l-412 56v343zM0 523v342l412 56v-396z" />
<glyph unicode="&#xf01c;" horiz-adv-x="864" d="M68 682q26 0 44 -18t18 -44v-261q0 -25 -18 -43.5t-44 -18.5t-44.5 18t-18.5 44v261q0 26 18.5 44t44.5 18zM569 916q65 -33 104 -93t39 -131h-560q0 71 39 131t104 93l-44 79q-4 9 4 12q8 4 11 -4l44 -79q58 25 122 25q65 0 122 -26l44 81q3 7 11 3q8 -3 4 -12zM304 793 q10 0 17 7t7 17t-7 16.5t-17 6.5t-16.5 -6.5t-6.5 -16.5t6.5 -17t16.5 -7zM560 793q10 0 16.5 7t6.5 17t-7 16.5t-16 6.5q-10 0 -17 -6.5t-7 -16.5t7 -17t17 -7zM154 670h556v-403q0 -28 -19.5 -47.5t-46.5 -19.5h-46v-138q1 -25 -17.5 -43.5t-44.5 -18.5t-44 18t-18 44v138 h-84v-138q0 -26 -18 -44t-44 -18t-44 18t-18 44v138h-46q-27 0 -46.5 19.5t-19.5 46.5v404zM859 620v-261q0 -26 -18.5 -44t-44.5 -18t-44 18.5t-18 43.5v261q0 26 18 44t44 18t44.5 -18t18.5 -44z" />
<glyph unicode="&#xf01d;" horiz-adv-x="864" d="M453 1008q38 0 66 -13t44 -33.5t25.5 -50.5t12 -58.5t2.5 -63.5l-1 -40q0 -34 18 -70t44 -68.5t52 -67t44 -80t18 -93.5q0 -33 -11 -64q12 -6 16 -10q14 -14 20.5 -43t14.5 -40q30 -42 30 -55q0 -19 -25 -36.5t-58 -35t-44 -31.5l-5 5l5 -5q-46 -55 -102 -55 q-27 0 -49 16.5t-29 42.5q-18 -1 -51 3.5t-48 4.5q-18 0 -52 -6.5t-52 -6.5q-20 -43 -77 -43q-39 0 -84 24l3 6l-3 -6q-14 7 -58 12.5t-73.5 17.5t-29.5 39q0 10 5 27.5t5 26.5q0 8 -2.5 26t-2.5 26q0 24 13 36t33.5 19t28.5 14q6 6 16 20t17 20q-7 49 7.5 96.5t41 86 t54.5 76t48 82.5t20 89q0 15 -2 44t-2 43q0 172 157 172zM475 869h-1q-23 0 -37 -21t-12 -44l1 -11q8 -2 22 -8q-3 45 23 45q11 0 16.5 -11t5.5 -23q0 -15 -9 -29q14 -5 26 -10q15 19 15 48q0 23 -14 43.5t-36 20.5zM351 859q-34 0 -34 -58q0 -29 18 -45l12 9q-12 9 -12 30 q0 11 6 22l8 5h1l8 -3q10 -12 10 -25v-11q11 8 21 10v12q0 18 -11 36t-27 18zM407 788q-16 0 -54 -26t-38 -40q0 -18 37.5 -44.5t56.5 -26.5q22 0 69 27.5t47 47.5q0 16 -49.5 39t-68.5 23zM505 730v-7q-13 -4 -46.5 -23.5t-56.5 -19.5q-13 0 -45 15t-31 25v8q5 -1 16 -11.5 t26 -19.5t34 -9q24 0 59 21t44 21zM525 703q-10 -14 -54.5 -36.5t-62.5 -22.5q-15 0 -27.5 6t-29 19t-22.5 17q-2 -51 -27.5 -110.5t-50.5 -119.5t-26 -112q-22 28 -22 67q0 26 11.5 57t23 53t11.5 25q0 1 -1 1h-1q-58 -97 -58 -152q0 -29 15 -53t36.5 -39.5t42.5 -30 t36 -33t15 -40.5q0 -14 -10 -21t-24 -6q4 -7 14 -20t14 -19q44 -30 97 -30q68 0 128 44q13 39 14 57q1 26 2 38.5t5 35.5t15 37t28 21q5 36 35 36q22 0 54.5 -17t32.5 -37l-1 -2v-5v-2h8q2 8 2 12q0 31 -63 57q4 15 4 33q0 40 -21 82.5t-53 70.5q-3 1 -3 -3l8 -9 q54 -57 54 -124q0 -22 -8 -43q-14 2 -21 2q-10 53 -58 158t-62 158zM649 360q-22 0 -22 -28q0 -17 8.5 -32t24.5 -15q14 0 31.5 12t17.5 26t-22.5 25.5t-37.5 11.5zM617 322q-19 -9 -29 -43q-8 -33 -8 -76q0 -21 -13.5 -62.5t-13.5 -63.5q0 -27 19 -45.5t46 -18.5 q49 0 92 51q10 12 42 30.5t57.5 35.5t25.5 27q0 15 -27 47q-10 12 -15 37t-14.5 40.5t-35.5 14.5h-13q-30 -34 -66 -34q-21 0 -33 18t-14 42zM162 320q-16 0 -28 -14q-4 -5 -13 -17.5t-15 -18.5q-9 -8 -34.5 -17.5t-33.5 -24.5q-4 -7 -4 -18q0 -8 3 -25t3 -26t-5.5 -27 t-5.5 -28q0 -25 34 -32q12 -2 38 -5t45.5 -7.5t36.5 -13.5q42 -21 79 -21q31 0 50 16t19 46q0 21 -31 62q-4 6 -16.5 20.5t-20.5 25.5t-13 22q-23 50 -38 71q-24 31 -50 32z" />
<glyph unicode="&#xf01e;" d="M504 1008q208 0 356 -148t148 -356t-148 -356t-356 -148t-356 148t-148 356t148 356t356 148zM934 508q-2 154 -98 269l-1 -1q-54 -73 -163 -133q-36 -20 -75 -36q10 -20 28 -62q4 -12 10 -23q65 11 142 5t110.5 -11t46.5 -8zM788 827q-121 107 -284 107q-53 0 -101 -12 q87 -116 160 -251q73 27 129.5 67.5t74 60.5t21.5 28zM401 922h-1h1zM320 893q-90 -42 -153 -121.5t-84 -178.5q201 0 397 52q-75 134 -160 248zM74 504q0 -165 110 -288v1q33 59 81 109.5t93.5 81t86 53t65.5 31.5l24 9q3 1 8.5 2.5t8.5 2.5q-17 36 -35 73 q-99 -29 -210 -44.5t-165.5 -17t-66.5 0.5v-14zM230 172q119 -98 274 -98q88 0 168 34q-25 153 -92 327q-1 -1 -3 -1q-10 -4 -28 -11t-66.5 -32t-89.5 -53.5t-86 -75.5t-68 -97zM745 147q73 49 121.5 124.5t62.5 164.5q-7 2 -18 5.5t-40 9t-58.5 8.5t-71 2t-80.5 -7 q53 -148 84 -307z" />
<glyph unicode="&#xf021;" horiz-adv-x="1152" d="M457 355l311 161l-311 162v-323zM1152 551v-94q0 -242 -57 -297q-28 -26 -51.5 -35.5t-64.5 -13.5q-14 -2 -132 -7q-150 -5 -271 -5q-116 0 -261 5q-62 2 -91 4q-27 0 -40 2q-6 1 -21.5 3.5t-20.5 3.5t-17 3.5t-17.5 5.5t-15.5 7.5t-18 11t-17 15.5q-57 55 -57 297v94 q0 242 57 298q28 26 51 35t65 13q14 2 132 7q112 5 271 5q158 0 271 -5q118 -5 132 -7q42 -4 65 -13t51 -35q57 -56 57 -298z" />
<glyph unicode="&#xf022;" d="M955 406q53 -69 53 -154q0 -104 -74 -178t-178 -74q-85 0 -154 53q-49 -11 -98 -11q-191 0 -326.5 135.5t-135.5 326.5q0 49 11 98q-53 69 -53 154q0 104 74 178t178 74q85 0 154 -53q49 11 98 11q191 0 326.5 -135.5t135.5 -326.5q0 -49 -11 -98zM518 199q102 0 177 51 t75 144q0 41 -18 72.5t-50.5 51t-63.5 31t-72 20.5l-68 16q-31 7 -46.5 12t-28.5 16.5t-13 29.5q0 50 94 50q35 0 61 -11.5t38.5 -26t30.5 -26t39 -11.5q31 0 50 21t19 51q0 54 -76 89t-174 35q-45 0 -86.5 -10t-78 -30.5t-58.5 -57t-22 -84.5q0 -76 44 -114.5t125 -58.5 l96 -23q66 -17 80 -29q14 -13 14 -34q0 -26 -26 -42.5t-69 -16.5q-41 0 -72 15.5t-46.5 34.5t-36 34.5t-43.5 15.5q-33 0 -49.5 -19.5t-16.5 -48.5q0 -61 80 -104t191 -43z" />
<glyph unicode="&#xf023;" horiz-adv-x="720" d="M632 1008q110 0 82 -128q-8 -40 -31.5 -161t-42 -214t-21.5 -104q-4 -16 -7.5 -25t-12.5 -24t-26 -22t-41 -7h-164q-8 0 -13 -6q-4 -6 -257 -299q-13 -15 -35.5 -17.5t-29.5 3.5q-33 14 -33 59v854q0 33 23 62t73 29h536zM619 401l95 479q-8 -40 -31.5 -161t-42 -214 t-21.5 -104zM600 862q3 14 -5.5 24.5t-21.5 10.5h-430q-14 0 -23 -10.5t-9 -22.5v-666q0 -4 3 -1l176 213q13 16 22.5 20.5t29.5 4.5h145q13 0 21.5 9t10.5 18q1 3 11 54t12 61q2 13 -7.5 24.5t-21.5 11.5h-178q-17 0 -28.5 11.5t-11.5 29.5v25q0 18 11.5 29t28.5 11h209 q11 0 21.5 8t12.5 18z" />
<glyph unicode="&#xf024;" d="M438 244v572q0 25 -17.5 43t-42.5 18h-186q-26 0 -43.5 -17.5t-17.5 -43.5v-572q0 -25 18 -42.5t43 -17.5h186q25 0 42.5 17.5t17.5 42.5zM877 496v320q0 26 -17.5 43.5t-43.5 17.5h-186q-25 0 -42.5 -18t-17.5 -43v-320q0 -25 17.5 -42.5t42.5 -17.5h186q25 0 43 17.5 t18 42.5zM1008 882v-756q0 -52 -37 -89t-89 -37h-756q-52 0 -89 37t-37 89v756q0 52 37 89t89 37h756q52 0 89 -37t37 -89z" />
<glyph unicode="&#xf025;" horiz-adv-x="1152" d="M871 924q119 0 200 -78.5t81 -196.5q0 -35 -7 -64l-107 -501h-219l116 546q3 9 3 20q0 29 -18.5 44.5t-48.5 15.5h-111l-134 -626h-219l134 626h-188l-134 -626h-219l134 626l-100 214h837z" />
<glyph unicode="&#xf026;" d="M510 1008q208 0 356 -148t148 -356t-148 -356t-356 -148q-137 0 -253 67.5t-183.5 183.5t-67.5 253t67.5 253t183.5 183.5t253 67.5zM742 548q11 14 16.5 38.5t-4 56t-39.5 51.5q-27 17 -55 17t-48.5 -11.5t-35.5 -29.5q-24 -26 -63 -26t-63 26q-15 18 -35.5 29.5 t-48.5 11.5t-54 -17q-31 -20 -40.5 -51.5t-4 -56t16.5 -38.5l229 -311z" />
<glyph unicode="&#xf027;" d="M742 819q-151 4 -205 -171q29 12 54 12q55 0 49 -63q-3 -38 -49 -109q-45 -73 -69 -73q-29 0 -54 112q-9 37 -29 167q-10 62 -36 91t-69 25q-38 -5 -108 -66q-3 -3 -44 -39.5t-62 -54.5l34 -45q50 35 58 35q37 0 70 -118q13 -46 58 -215q45 -118 108 -118q101 0 252 193 q144 187 148 291q8 143 -106 146zM1008 907v-806q0 -42 -29.5 -71.5t-71.5 -29.5h-806q-42 0 -71.5 29.5t-29.5 71.5v806q0 42 29.5 71.5t71.5 29.5h806q42 0 71.5 -29.5t29.5 -71.5z" />
<glyph unicode="&#xf028;" horiz-adv-x="1152" d="M1151 772q-8 -169 -235 -461q-236 -305 -397 -305q-101 0 -170 186q-31 113 -93 341q-52 186 -111 186q-14 0 -91 -55l-54 70l84 75l84 75q111 98 171 104q67 6 108.5 -40t56.5 -144q33 -206 47 -264q40 -176 85 -176q37 0 109 114q73 115 77 174q10 99 -77 99 q-39 0 -85 -19q84 278 324 270q177 -6 167 -230z" />
<glyph unicode="&#xf029;" d="M1005 476q11 -38 -11 -73q-9 -19 -43 -30l-104 -36l34 -101l1 -2q10 -35 -6 -66.5t-50 -43.5q-12 -4 -27 -4q-29 0 -52 16.5t-32 43.5l-34 100l-187 -64l33 -100q1 -1 1 -4q10 -34 -6 -65t-50 -42q-15 -5 -27 -5q-29 0 -52 16.5t-32 43.5l-33 99l-93 -32q-15 -6 -30 -6 q-29 0 -51 15.5t-31 41.5l-1 2v2q-10 34 6.5 65.5t50.5 42.5l94 33l-63 189q-51 -17 -95 -33q-17 -5 -29 -5q-28 0 -50.5 16t-30.5 42q-1 0 -1 2q0 1 -1 2q-9 34 7 65t50 42l95 32l-32 97q-1 1 -1 4q-10 34 6 65t50 42q15 5 27 5q29 0 52 -16.5t32 -43.5l32 -97l188 64 l-32 97l-1 4q-10 34 6 65t50 42q15 5 27 5q21 0 40 -9q33 -17 44 -51l33 -97l97 33q9 3 27 3q29 1 52 -15t31 -43l1 -4q10 -33 -9 -62.5t-51 -39.5q-2 -1 -95 -33l64 -191l99 34q15 5 28 5q29 0 52.5 -16t31.5 -42zM439 379l188 64l-64 190q-26 -9 -88.5 -30.5t-98.5 -33.5z " />
<glyph unicode="&#xf02a;" d="M72 504q0 93 37 176l206 -565q-110 53 -176.5 158t-66.5 231zM796 526q0 -30 -33 -140l-43 -144l-156 465q26 1 49 4q11 1 15 10.5t-1.5 17.5t-16.5 7l-115 -5q-42 0 -114 5q-11 1 -16 -7.5t-1.5 -17.5t14.5 -10l46 -4l67 -185l-94 -284l-158 469q26 1 50 4 q11 1 14.5 10.5t-1.5 17.5t-16 7l-115 -5h-28q59 90 154 142.5t207 52.5q168 0 292 -113h-6q-31 0 -51.5 -23t-20.5 -54q0 -8 2 -17.5t4 -16t7.5 -17.5t8 -15.5t10.5 -17.5t10 -17q36 -59 36 -119zM512 466l132 -364q2 -4 4 -6q-68 -24 -144 -24q-62 0 -122 17zM883 711 q53 -95 53 -207q0 -118 -58.5 -217.5t-156.5 -156.5l132 382q33 95 33 155q0 25 -3 44zM504 1008q208 0 356 -148t148 -356t-148 -356t-356 -148t-356 148t-148 356t148 356t356 148zM504 23q130 0 241 64.5t175.5 175.5t64.5 241t-64.5 241t-175.5 175.5t-241 64.5 t-241 -64.5t-175.5 -175.5t-64.5 -241t64.5 -241t175.5 -175.5t241 -64.5z" />
<glyph unicode="&#xf02b;" d="M504 1008q208 0 356 -148t148 -356t-148 -356t-356 -148t-356 148t-148 356t148 356t356 148zM51 504q0 -132 70 -242t185 -166l-216 592q-39 -87 -39 -184zM504 51q78 0 150 26l-3 6l-139 381l-136 -395q62 -18 128 -18zM566 716l164 -487l45 151q35 116 35 147 q0 60 -37 125q-2 4 -9.5 15.5t-10 16t-8 14.5t-7.5 15.5t-5 13.5t-4 15.5t-1 15.5q0 32 22 56.5t54 24.5q1 0 3 -0.5t3 -0.5q-130 119 -306 119q-117 0 -217 -55t-162 -149q6 0 16 -0.5t14 -0.5q47 1 120 6q12 1 17.5 -7.5t1.5 -18.5t-16 -11l-52 -5l165 -490l100 297 l-71 193q-24 3 -48 5q-11 1 -15 10.5t1.5 18.5t16.5 8l120 -6q47 1 120 6q12 1 17.5 -7.5t1.5 -18.5t-16 -11zM902 721q3 -21 3 -46q0 -63 -35 -162l-138 -401q103 60 164 164.5t61 227.5q0 116 -55 217z" />
<glyph unicode="&#xf02c;" horiz-adv-x="1152" d="M526 103v824l165 81v-930l-165 -78q-211 19 -352.5 119t-141.5 234q0 129 132.5 227.5t332.5 122.5v-105q-131 -23 -215.5 -90.5t-84.5 -154.5q0 -92 93.5 -162t235.5 -88zM1120 419l-319 69l90 51q-76 43 -171 59v105q168 -21 293 -95l84 47z" />
<glyph unicode="&#xf02d;" d="M775 846q-51 -11 -91 0q-20 -38 -180 -301q-169 280 -181 301q-45 -10 -90 0v0v0q33 -49 80 -128.5t95 -163.5t58 -101l-6 -291l44 4q19 0 43 -4l-5 291zM972 1008q14 0 25 -11t11 -26v-934q0 -15 -11 -26t-25 -11q-6 0 -9 1q-232 56 -459 56t-459 -56q-3 -1 -9 -1 q-14 0 -25 11t-11 26v934q0 15 11 26t25 11q6 0 9 -1q232 -56 459 -56t459 56q3 1 9 1z" />
<glyph unicode="&#xf02e;" horiz-adv-x="864" d="M487 428l8 -428l-63 6q-26 0 -64 -6l8 428q-4 7 -82.5 145t-145 250t-115.5 185v0v0q41 -9 66 -9t67 9q42 -74 265 -444q236 387 266 444q64 -16 134 0v0q-61 -83 -344 -580z" />
<glyph unicode="&#xf02f;" horiz-adv-x="1296" d="M849 204q0 -7 -7 -16q-53 -60 -193 -60q-142 0 -195 60q-7 9 -7 16q0 10 7 17t16 7q8 0 17 -7q55 -47 160 -47q106 0 162 47q9 7 17 7q9 0 16 -7t7 -17zM550 424q0 -34 -24.5 -58.5t-58.5 -24.5t-58.5 24.5t-24.5 58.5t24.5 59t58.5 25t58.5 -25t24.5 -59zM912 424 q0 -34 -24 -58.5t-58 -24.5q-35 0 -59.5 24.5t-24.5 58.5t25 59t59 25t58 -25t24 -59zM234 590q-22 15 -50 15q-38 0 -64 -26.5t-26 -63.5q0 -41 30 -68q31 82 110 143zM1136 359q0 125 -140 218q-142 94 -350 94q-209 0 -351 -94q-140 -93 -140 -218t140 -218 q142 -94 351 -94q208 0 350 94q140 93 140 218zM1202 515q0 37 -26 63.5t-64 26.5q-29 0 -52 -17q79 -64 108 -144q34 28 34 71zM1121 895q0 27 -19.5 46.5t-46.5 19.5t-46.5 -19.5t-19.5 -46.5t19.5 -46.5t46.5 -19.5t46.5 19.5t19.5 46.5zM1249 515q0 -36 -18.5 -68 t-50.5 -51q3 -18 3 -37q0 -79 -44.5 -144.5t-116.5 -112.5q-154 -102 -376 -102q-223 0 -377 102q-72 47 -116.5 112.5t-44.5 144.5q0 23 4 40q-65 41 -65 116q0 56 40.5 96.5t96.5 40.5q52 0 89 -34q151 97 359 100l81 256q5 16 23 16q8 0 216 -50q14 31 41.5 49.5 t61.5 18.5q47 0 80 -33t33 -80t-33 -80t-80 -33q-46 0 -79 33t-34 79l-191 45l-70 -222q196 -8 339 -100q40 35 92 35q56 0 96.5 -40.5t40.5 -96.5z" />
<glyph unicode="&#xf030;" d="M486 808q51 0 82 -53t31 -109q0 -39 -22 -62q-27 -27 -61 -27q-52 0 -82 51t-30 106q0 42 20.5 68t61.5 26zM530 418q4 0 11 -0.5t10 -0.5q3 -2 17.5 -12t19.5 -14t17 -14t17.5 -17t12.5 -17t10 -21t3 -22q0 -49 -39 -72t-92 -23q-60 0 -109 26.5t-49 81.5q0 39 30.5 64 t66 33t74.5 8zM616 805h54l57 36h-186q-44 0 -81 -8.5t-68.5 -27t-49 -52t-17.5 -80.5q0 -61 43.5 -99.5t105.5 -38.5q10 0 28 2q-9 -22 -9 -35q0 -26 27 -60q-112 -6 -171 -40q-68 -41 -68 -108q0 -45 32.5 -75.5t72.5 -41t84 -10.5q67 0 126.5 23.5t90.5 73.5q21 34 21 71 q0 38 -20.5 68.5t-44.5 46.5t-44.5 35t-20.5 36q0 16 15.5 33t34.5 30.5t34.5 41t15.5 63.5q0 67 -62 116zM53 1008h902q22 0 37.5 -15.5t15.5 -37.5v-902q0 -22 -15.5 -37.5t-37.5 -15.5h-902q-22 0 -37.5 15.5t-15.5 37.5v902q0 22 15.5 37.5t37.5 15.5z" />
<glyph unicode="&#xf031;" horiz-adv-x="720" d="M608 955h-80q46 -38 69 -78t23 -96q0 -44 -15.5 -78.5t-37.5 -56.5t-44 -40t-37.5 -37t-15.5 -40q0 -22 20 -43t49 -41.5t58 -45t49 -63t20 -86.5q0 -54 -31 -105q-47 -75 -136 -110t-189 -35q-82 0 -154 25t-108 84q-23 38 -23 81q0 49 29 91t75 70q84 50 255 60 q-40 51 -40 90q0 22 14 52q-22 -3 -43 -3q-92 0 -157.5 58t-65.5 149q0 70 26.5 120.5t73.5 78t102 40t121 12.5h280zM399 375q-42 0 -82.5 -7.5t-81.5 -23.5t-66.5 -49t-25.5 -78q0 -43 22.5 -75.5t59 -50.5t75.5 -26.5t79 -8.5q79 0 138 35t59 108q0 17 -4 32.5t-15.5 31 t-18 25.5t-26.5 25.5t-25.5 20t-30.5 21.5t-26 18q-20 2 -31 2zM334 960q-62 0 -93 -39t-31 -102q0 -37 11 -77t31 -76t53 -59t73 -23q51 0 91 40q33 34 33 93q0 51 -17.5 105t-58 96t-92.5 42z" />
<glyph unicode="&#xf032;" d="M792 493h-98v-83q0 -13 -9 -21.5t-22 -8.5t-21.5 8.5t-8.5 21.5v81l-59 -17l-39 18v-80q0 -53 37.5 -90.5t90.5 -37.5q54 0 91.5 38t37.5 91v80zM535 559l39 -18l59 17v41q0 52 -38.5 88.5t-90.5 36.5t-90.5 -36t-38.5 -88v-186q0 -13 -8.5 -22t-21.5 -9t-22 9t-9 22v79 h-98v-80q0 -53 37.5 -91t91.5 -38q53 0 90.5 37t37.5 90v184q0 13 9 21.5t22 8.5q8 0 13.5 -2t9 -7t5.5 -9t2.5 -12t0.5 -12v-13v-11zM1008 504q0 -208 -148 -356t-356 -148t-356 148t-148 356t148 356t356 148t356 -148t148 -356z" />
<glyph unicode="&#xf033;" horiz-adv-x="1152" d="M637 614v71q0 25 -17.5 43t-43.5 18t-43.5 -18t-17.5 -43v-367q0 -105 -76 -179.5t-181 -74.5q-107 0 -182.5 75.5t-75.5 182.5v159h197v-157q0 -26 17.5 -43.5t43.5 -17.5t43.5 17.5t17.5 43.5v372q0 103 76 175.5t181 72.5q106 0 181.5 -73t75.5 -177v-81l-117 -35z M955 481h197v-159q0 -107 -75.5 -182.5t-182.5 -75.5q-106 0 -181.5 74.5t-75.5 180.5v161l79 -37l117 35v-162q0 -25 18 -43t43 -18t43 18t18 43v165z" />
<glyph unicode="&#xf034;" d="M504 504v-504h-504v504h504zM1008 1008v-504h-504v504h504z" />
<glyph unicode="&#xf035;" horiz-adv-x="1152" d="M184 850h116v-553h-300v391h184v162zM184 389v207h-69v-207h69zM346 688v-391h115v391h-115zM346 850v-116h115v116h-115zM507 688h299v-530h-299v93h184v46h-184v391zM691 389v207h-69v-207h69zM852 688h300v-530h-300v93h185v46h-185v391zM1037 389v207h-69v-207h69z " />
<glyph unicode="&#xf036;" d="M687 423q0 -42 -25 -72t-60 -30q-27 0 -46 11v181q19 11 46 11q35 0 60 -29.5t25 -71.5zM461 703q0 -42 -25 -71.5t-60 -29.5q-28 0 -45 10v182q19 11 45 11q35 0 60 -30t25 -72zM830 421q0 88 -58 150t-140 62q-16 0 -25 -2q-16 -52 -51 -89q-57 -61 -139 -66v-418 l139 27v135q35 -12 76 -12q82 0 140 62t58 151zM605 701q0 88 -58 150.5t-140 62.5q-47 0 -93 -24h-122v-551l139 26v136q37 -13 76 -13q82 0 140 62.5t58 150.5zM1008 936v-864q0 -30 -21 -51t-51 -21h-864q-30 0 -51 21t-21 51v864q0 30 21 51t51 21h864q30 0 51 -21 t21 -51z" />
<glyph unicode="&#xf037;" horiz-adv-x="1146" d="M688 485q52 2 96.5 -15.5t81 -54.5t61 -71t54.5 -85q19 -32 44 -61t43 -45.5t55 -49.5q-27 -17 -60.5 -32.5t-78.5 -33.5t-64 -26q-29 24 -47 80.5t-27.5 117t-22.5 118.5t-43 95.5t-78 37.5l-6 -1l-3 -2q5 -5 7 -8q4 -3 16 -13t14.5 -12t11 -10t10 -12t6 -12t6 -15 t3 -17.5t1.5 -23.5l1 -18q1 -19 -1.5 -37.5t-9.5 -49.5t-8 -37q-20 1 -57 -5.5t-55 -6.5q-22 0 -41 6q-1 9 -1 27q0 37 2 54q1 7 33.5 38.5t31.5 46.5q-15 1 -24 -13q-21 -30 -63.5 -56.5t-76.5 -26.5q-18 0 -75.5 78.5t-74.5 90.5q-4 3 -15 16q-279 -63 -288 -63t-16 6.5 t-7 15.5q0 18 18 23l273 60q-3 11 -4.5 17t6.5 10t12.5 5.5t14.5 3.5t13 3l9 4.5t10 3.5q8 0 15.5 -9.5t10.5 -18.5q91 21 98 21q9 0 16 -6.5t7 -15.5q0 -19 -18 -22l-102 -23l-1 -9q-1 -14 45.5 -66t58.5 -52q27 0 67.5 45.5t40.5 72.5q0 20 -13 29.5t-29 10.5t-29 7 t-13 19q0 7 6 19l-38 11q24 25 24 66q0 17 -3 33q46 8 81 8q29 0 46 -2t28 -5t18 -13t10.5 -18t11.5 -29.5t15 -38.5l27 14q-1 -19 -8.5 -29.5t-17.5 -13.5t-20 -4t-16.5 -4t-5.5 -10zM721 618q-3 4 -8.5 10t-8 8.5t-6 7t-5.5 6.5t-5 4.5t-5.5 4t-5.5 2.5q-9 4 -72 4 q-71 0 -122 -24q17 31 51 43q15 6 28 13.5t26 19.5t19.5 19t21.5 24.5t20 23.5q4 -3 21.5 -25t33.5 -21l7 1v-43h12q140 54 209 107q16 12 28.5 22t24 21t18.5 17.5t16.5 19t13.5 17.5t13.5 21t13 21t15 26.5t16.5 29.5l4 6q-1 -31 -24 -79q-85 -180 -288 -228q-2 -1 -31 -6 t-42 -12q1 -10 13.5 -25.5t12.5 -19.5q0 -8 -15 -16zM597 100q22 14 74 26.5t82 12.5q5 0 12.5 -9t15.5 -24t15 -28.5t13.5 -28.5t8.5 -19q-69 -25 -137 -25q-35 0 -71 6zM462 463l27 7l62 -99l-42 -27zM744 172q0 -1 1 -3.5t1 -4.5q0 -4 -10 -8t-25.5 -7.5t-30.5 -5.5 l-30 -4t-18 -3l-4 24q4 0 45.5 6.5t62.5 6.5zM487 526l-54 -11l-3 9q6 0 18.5 4t19.5 4q10 0 19 -6zM597 170h17l6 -47l-23 -7v54zM1097 1007v1v-1v1v-1zM1097 1007l-1 -3h-1l1 1zM1097 1008z" />
<glyph unicode="&#xf038;" d="M468 1008q71 -86 107 -111q25 -17 76.5 -40.5t71.5 -35.5q104 -61 163 -167t59 -227q0 -184 -126 -305.5t-311 -121.5q-119 0 -221.5 57.5t-163 158t-60.5 219.5t63 225t168 161q93 47 124 73q43 36 50 114zM130 640q0 -20 25 -20q35 0 109.5 42.5t137 99t62.5 89.5 q0 10 -9 15q2 5 15.5 20.5t13.5 40.5q0 18 -11 62q-7 -39 -17.5 -61t-37.5 -42q-32 -24 -81.5 -52.5t-91 -56.5t-74.5 -67q-41 -49 -41 -70zM575 48q41 0 100 14.5t59 41.5q0 9 -9 9q-2 0 -6 -2q-46 -32 -125 -32q-17 0 -35.5 3t-32.5 7.5t-25.5 9t-18.5 7.5l-6 3 q-8 0 -15 -7l-4 -10q-1 -21 43 -32.5t75 -11.5zM635 218q-20 0 -53 -18.5t-33 -36.5q0 -5 3 -8l6 -4q4 0 29 19.5t55 19.5q19 0 28.5 -5t17.5 -20q8 -12 10 -12q4 0 9 4.5t5 9.5q0 51 -77 51zM816 172q46 0 72.5 55.5t26.5 107.5q0 32 -16 56.5t-47 24.5q-23 0 -92.5 -48 t-94.5 -48q-19 0 -48 17.5t-56 38t-67 38t-79 17.5q-61 0 -111 -43.5t-50 -103.5q0 -64 36 -90t102 -26q42 0 97.5 29.5t104 59t73.5 29.5q23 0 78.5 -57t70.5 -57z" />
<glyph unicode="&#xf039;" d="M702 388l-105 -105l-99 -100l-20 -19q-42 -43 -99 -58t-113 -1q-10 -45 -46.5 -75t-84.5 -30q-56 0 -95.5 39.5t-39.5 95.5q0 48 29.5 84t74.5 47q-15 57 0 114t58 100l8 8l99 -100l-7 -8q-25 -24 -25 -58t25 -59q24 -24 58.5 -24t58.5 24l19 20l100 99l105 106zM741 108 q-57 -18 -118 -3.5t-106 59.5l-7 7l99 100l8 -8q24 -24 58 -24t59 24q24 25 24 59t-25 58l-19 20l-99 99l-106 106l100 99l105 -105l99 -100l20 -19q42 -42 57.5 -98.5t1.5 -112.5q50 -8 83 -45.5t33 -88.5q0 -56 -39.5 -95.5t-95.5 -39.5q-49 0 -86 30.5t-46 77.5zM293 611 l105 105l100 100l19 19q44 44 104.5 59t116.5 -2q7 49 45 82.5t89 33.5q56 0 95.5 -39.5t39.5 -95.5q0 -51 -33.5 -89t-83.5 -45q16 -56 1.5 -116t-58.5 -104l-8 -8l-99 100l7 8q25 24 25 58t-25 59q-24 24 -58 24t-58 -25l-20 -19l-99 -100l-106 -105zM182 499l-20 20 q-44 44 -59 105t3 117q-45 11 -75 47.5t-30 84.5q0 56 39.5 95.5t95.5 39.5q50 0 87.5 -32.5t45.5 -80.5q56 13 112 -2.5t97 -57.5l8 -7l-100 -100l-7 8q-24 24 -58.5 24t-58.5 -24q-25 -25 -25 -59t25 -59l19 -19l100 -100l105 -105l-100 -100l-105 106z" />
<glyph unicode="&#xf03a;" horiz-adv-x="1152" d="M1039 817h-287v-70h287v70zM898 578q-51 0 -82.5 -30t-34.5 -80h229q-10 110 -112 110zM907 248q35 0 68.5 18t42.5 49h124q-56 -172 -240 -172q-121 0 -192 74t-71 196q0 116 73.5 193.5t189.5 77.5q117 0 185.5 -80.5t64.5 -197.5l-1 -27h-370q0 -62 32.5 -96.5 t93.5 -34.5zM156 277h167q115 0 115 94q0 101 -112 101h-170v-195zM156 579h158q95 0 95 84q0 81 -107 81h-146v-165zM0 865h334q227 0 227 -175q0 -103 -97 -148q129 -37 129 -180q0 -102 -72 -154t-178 -52h-343v709z" />
<glyph unicode="&#xf03b;" d="M244 404q58 0 99.5 -41t41.5 -100q0 -58 -41 -99t-100 -41q-40 0 -73.5 20.5t-50.5 54.5q23 -10 69 -28q19 -8 42 -8q34 0 62.5 19t41.5 51q17 43 -1 85.5t-61 59.5l-59 23q13 4 30 4zM864 1008q60 0 102 -42t42 -102v-720q0 -60 -42 -102t-102 -42h-720q-60 0 -102 42 t-42 102v102l57 -23q14 -65 66.5 -108t120.5 -43q74 0 128.5 50t61.5 123l246 179q106 0 181 75t75 181t-75 181t-181 75t-180.5 -74t-75.5 -180l-160 -229q-12 2 -20 2q-53 0 -97 -27l-147 59v377q0 60 42 102t102 42h720zM681 543q56 0 96.5 40.5t40.5 97.5 q0 56 -40.5 96.5t-96.5 40.5q-57 0 -97.5 -40.5t-40.5 -96.5q0 -57 40.5 -97.5t97.5 -40.5zM680 852q71 0 121.5 -50.5t50.5 -121.5t-50.5 -121.5t-121.5 -50.5t-121.5 50.5t-50.5 121.5t50.5 121.5t121.5 50.5z" />
<glyph unicode="&#xf03c;" horiz-adv-x="1152" d="M854 870q66 0 113 -47t47 -113t-47 -113t-113 -47t-113 47t-47 113t47 113t113 47zM853 1008q124 0 211.5 -87.5t87.5 -211.5t-87.5 -211t-211.5 -87l-286 -210q-8 -85 -72 -143t-150 -58q-80 0 -140.5 50t-77.5 126l-127 51v281l231 -93q53 31 114 31q15 0 23 -1 l186 267q2 123 89 209.5t210 86.5zM345 59q68 0 116 48t48 116t-48 116t-116 48q-20 0 -35 -4l68 -27q50 -20 71.5 -70t1.5 -100t-70 -71t-100 -1l-81 33q20 -40 59 -64t86 -24zM853 509q83 0 142 58.5t59 141.5t-59 142t-142 59t-141.5 -59t-58.5 -142t58.5 -141.5 t141.5 -58.5z" />
<glyph unicode="&#xf03d;" d="M504 1008q208 0 356 -148t148 -356t-148 -356t-356 -148t-356 148t-148 356t148 356t356 148zM430 745q-133 0 -239 -31q-35 -10 -35 -48q0 -20 13.5 -34t33.5 -14q9 0 26 5q90 24 201 24q105 0 204 -22.5t166 -62.5q13 -7 26 -7q19 0 33 13.5t14 33.5q0 31 -26 46 q-166 97 -417 97zM420 572q-99 0 -199 -28q-31 -9 -31 -42q0 -16 11 -27.5t28 -11.5l25 5q79 21 164 21q184 0 320 -81q16 -8 25 -8q17 0 28.5 11.5t11.5 27.5q0 26 -23 40q-157 93 -360 93zM427 407q-92 0 -189 -22q-27 -5 -27 -35q0 -13 9 -22t23 -9q4 0 24 5 q87 17 159 17q150 0 261 -67q13 -8 21 -8q13 0 22.5 9.5t9.5 22.5q0 21 -20 33q-127 76 -293 76z" />
<glyph unicode="&#xf03e;" horiz-adv-x="720" d="M670 453v-251h-307l-27 -19l-86 -165l-18 -18h-182v183l184 353l-15 19h-169v251h307l27 19l86 165l18 18h182v-183l-184 -353l15 -19h169z" />
<glyph unicode="&#xf040;" horiz-adv-x="1152" d="M56 495q4 0 4 -5l13 -104l-13 -101q0 -4 -4 -4q-5 0 -5 4l-11 101l11 104q0 5 5 5zM13 455q3 0 5 -5l10 -64l-10 -62q-2 -5 -5 -5t-5 5l-8 62l8 64q2 5 5 5zM101 515q4 0 6 -6l12 -123l-12 -118q-2 -6 -6 -6q-6 0 -6 6l-11 118l11 123q0 6 6 6zM147 519q6 0 6 -6l12 -127 l-12 -122q0 -6 -6 -6q-7 0 -7 6l-10 122l10 127q0 6 7 6zM200 263zM200 503l11 -117l-11 -123q0 -7 -7 -7q-8 0 -8 7l-10 123l10 117q0 8 8 8q7 0 7 -8zM239 585q7 0 9 -8l10 -191l-10 -123q-2 -8 -9 -8t-9 8l-9 123l9 191q0 8 9 8zM285 629q8 0 10 -9l9 -234l-9 -123 q-2 -9 -10 -9t-10 9l-8 123l8 234q0 9 10 9zM333 650q10 0 10 -10l9 -254l-9 -121q0 -10 -10 -10q-11 0 -11 10l-8 121l8 254q0 10 11 10zM392 648l8 -262l-8 -120q-2 -11 -12 -11q-11 0 -11 11l-8 120l8 262q0 12 11 12q12 0 12 -12zM392 266zM428 654q13 0 13 -12l7 -256 l-7 -119q0 -12 -13 -12q-11 0 -13 12l-6 119l6 256q2 12 13 12zM476 646q14 0 14 -14l7 -246l-7 -118q0 -14 -14 -14q-13 0 -13 14l-6 118l6 246q0 14 13 14zM533 691q5 -4 7 -12l6 -293l-6 -106v-11q-2 -8 -5 -11q-6 -4 -10 -4q-8 0 -11 5q-4 6 -4 9v1l-5 117l5 290v3 q0 7 7 12q2 2 8 2t8 -2zM540 269v0v0zM581 719q8 -5 8 -14l7 -319l-7 -116v0q0 -6 -4.5 -10.5t-11.5 -4.5q-6 0 -10.5 4.5t-4.5 10.5l-3 57l-4 59l7 318v1q0 9 5 12q4 4 10 4q4 0 8 -2zM1010 537q59 0 100.5 -41t41.5 -100t-41.5 -100t-100.5 -41h-392q-16 0 -16 16v450 q0 11 14 16q42 17 91 17q97 0 168.5 -66t80.5 -162q25 11 54 11z" />
<glyph unicode="&#xf041;" d="M946 507v-120q-60 -14 -121 -14q-56 -120 -147 -225.5t-140 -133.5q-48 -28 -98 2q-25 15 -56 42.5t-80.5 94.5t-92.5 154.5t-85 232.5t-64 317h172q30 -253 97 -413t167 -281q103 103 174 245q-86 44 -135 134t-49 202q0 116 63 190t172 74q107 0 165 -64t58 -180 q0 -93 -35 -174q-4 -1 -11.5 -2t-28 -1t-38.5 4t-38 16t-31 31q19 62 19 112q0 52 -17.5 79.5t-47.5 27.5q-32 0 -51.5 -30t-19.5 -85q0 -113 63.5 -178.5t161.5 -65.5q35 0 74 9z" />
<glyph unicode="&#xf042;" d="M1007 665q0 -1 0.5 -1t0.5 -1v-5v-308v-5q0 -1 -0.5 -1t-0.5 -1v-4q-1 0 -1 -2q-1 -1 -1 -3q-1 -1 -1 -2l-1 -1q-1 -1 -1 -2t-0.5 -1t-0.5 -1l-1 -1q0 -2 -1 -2l-1 -1q-2 -2 -2 -3q-2 0 -2 -2q-1 0 -3 -2q-1 -1 -2 -1v-1l-461 -307q-10 -7 -24 -7t-24 7l-461 307v1l-2 1 q-2 2 -3 2q0 2 -2 2q0 1 -2 3l-1 1q-1 0 -1 1t-1 2q0 1 -0.5 1t-0.5 1t-1 1l-1 2q0 1 -1 2q0 2 -1 3q0 2 -1 2v4q0 1 -0.5 1t-0.5 1v5v308v5q0 1 0.5 1t0.5 1v4q1 0 1 2q1 1 1 3q1 1 1 2l1 1q1 1 1 2t0.5 1t0.5 1l1 1q0 2 1 2l1 1q2 2 2 3q2 0 2 2q1 0 3 2q1 1 2 1v1 l461 307q24 14 48 0l461 -307v-1l2 -1q2 -2 3 -2q0 -2 2 -2q0 -1 2 -3l1 -1q1 0 1 -1t1 -2q0 -1 0.5 -1t0.5 -1t1 -1l1 -2q0 -1 1 -2q0 -2 1 -3q0 -2 1 -2v-4zM504 402l153 102l-153 102l-153 -102zM461 682v202l-340 -226l152 -102zM195 504l-108 72v-144zM273 452 l-152 -102l340 -226v202zM547 326v-202l340 226l-152 102zM813 504l108 -72v144zM735 556l152 102l-340 226v-202z" />
<glyph unicode="&#xf043;" horiz-adv-x="1152" d="M1012 540q63 -26 101.5 -82.5t38.5 -123.5q0 -93 -67 -158.5t-160 -65.5l-692 1q-93 0 -163 67.5t-70 160.5q0 61 30.5 113.5t83.5 83.5q-7 21 -7 46q0 65 46.5 110.5t111.5 45.5q54 0 96 -33q43 88 127.5 140.5t182.5 52.5q140 0 241 -98.5t101 -239.5q0 -13 -1 -20z M263 390q0 -69 47.5 -108.5t117.5 -39.5q76 0 134 55q-7 10 -51 61q-37 -37 -81 -37q-30 0 -52 19t-22 49t21.5 49t51.5 19q34 0 64 -22t55 -53.5t52.5 -63.5t68 -54t90.5 -22q69 0 116 40t47 107t-47.5 107.5t-116.5 40.5q-80 0 -136 -55q1 -2 52 -61q38 36 81 36 q30 0 52 -19t22 -49q0 -31 -21.5 -49.5t-52.5 -18.5q-33 0 -62.5 22t-54.5 54t-53 64t-68.5 54t-88.5 22q-69 0 -117 -40t-48 -107z" />
<glyph unicode="&#xf044;" d="M11 516q5 123 65.5 229t170.5 179l3 -2q-8 -8 -27 -33.5t-44 -77t-37 -106t6 -121.5t73 -122q28 -28 57.5 -39t51 -6.5t39 13t26.5 18.5l9 9q22 28 30 65t3.5 69t-12 60.5t-15.5 44.5l-7 17q-9 22 -32.5 42.5t-42.5 29.5l-18 9l58 65q22 -9 44 -29t33 -35l11 -15 q1 27 -10 58.5t-22 49.5l-12 17l90 103l90 -102q-18 -26 -29 -57.5t-13 -50.5l-2 -19q12 21 34 41t38 30l16 9l58 -65q-24 -8 -47 -28t-34 -36l-11 -17q-17 -32 -26.5 -75.5t-4 -95.5t31.5 -88q18 -25 43.5 -34t48 -3t42.5 15t32 18l12 10q59 52 78 118.5t5 124t-36.5 107.5 t-45.5 79l-22 29q-7 6 -5 7l6 -2q41 -30 64.5 -49t60.5 -58.5t57.5 -78.5t37 -99.5t17.5 -130.5q3 -222 -136 -364.5t-357 -142.5q-139 0 -254.5 70t-179.5 189t-60 257z" />
<glyph unicode="&#xf045;" d="M492 86v-36q-118 3 -217.5 61t-158.5 155l32 19q15 -24 41 -56l37 33q82 -95 207 -119l-10 -49q39 -7 69 -8zM155 385l-46 -16q8 -25 27 -63l-32 -19q-55 102 -55 217t55 217l32 -19q-15 -27 -28 -63l47 -16q-20 -57 -20 -119t20 -119zM860 285l32 -19 q-59 -97 -158.5 -155t-217.5 -61v36q30 1 69 8l-10 49q125 24 207 119l37 -33q26 32 41 56zM774 597l-131 -45q9 -22 9 -48t-9 -48l131 -45q-18 -51 -55 -95l-104 91q-33 -38 -83 -47l27 -136q-27 -6 -55 -6t-55 6l27 136q-50 9 -83 47l-104 -91q-37 44 -55 95l131 45 q-9 22 -9 48t9 48l-131 45q18 51 55 95l104 -91q33 37 83 48l-27 135q27 6 55 6t55 -6l-27 -135q50 -11 83 -48l104 91q37 -44 55 -95zM492 958v-36q-40 -2 -69 -8l10 -48q-123 -24 -207 -119l-37 32q-23 -27 -40 -56l-33 19q59 97 158.5 155t217.5 61zM959 504 q0 -115 -55 -217l-32 19q19 38 27 63l-46 16q20 57 20 119t-20 119l47 16q-13 36 -28 63l32 19q55 -102 55 -217zM892 742l-33 -19q-17 29 -40 56l-37 -32q-84 95 -207 119l10 48q-29 6 -69 8v36q118 -3 217.5 -61t158.5 -155zM983 504q0 130 -64 240.5t-174.5 174.5 t-240.5 64t-240.5 -64t-174.5 -174.5t-64 -240.5t64 -240.5t174.5 -174.5t240.5 -64t240.5 64t174.5 174.5t64 240.5zM1008 504q0 -208 -148 -356t-356 -148t-356 148t-148 356t148 356t356 148t356 -148t148 -356z" />
<glyph unicode="&#xf046;" d="M860 758h96v-107q-9 0 -25 1t-24 1h-47v-205q0 -74 48 -74q36 0 62 19v-111q-41 -22 -98 -22q-43 0 -71.5 15.5t-41.5 45t-17.5 60t-4.5 72.5v198q-17 4 -53 0v107h54q0 74 -3 92h128q-3 -18 -3 -92zM631 268h-124q2 25 2 75v343q0 48 -2 72h124q-2 -23 -2 -70v-338 q0 -55 2 -82zM570 844q-33 0 -55.5 24t-22.5 57q0 34 22.5 58.5t55.5 24.5q32 0 54 -25t22 -58q0 -32 -22 -56.5t-54 -24.5zM165 580q0 -76 69 -76q68 0 68 77q0 34 -17.5 57.5t-50.5 23.5q-69 0 -69 -82zM335 157q0 56 -93 56q-89 0 -89 -59q0 -57 97 -57q85 0 85 60z M330 737q55 0 123 26v-113q-4 -2 -44 -13q8 -24 8 -47q0 -72 -41 -122t-111 -63q-44 -8 -44 -48q0 -23 23.5 -36t56.5 -21t66.5 -19.5t57 -38.5t23.5 -71q0 -171 -204 -171q-85 0 -145.5 34.5t-60.5 113.5q0 92 103 127v2q-38 23 -38 70q0 62 35 78v2q-40 14 -66.5 61 t-26.5 93q0 78 53.5 130t131.5 52q54 0 100 -26z" />
<glyph unicode="&#xf047;" d="M360 774h-108l203 -324v-216h99v216l202 324h-108l-144 -234zM1008 1008v-1008h-1008v1008h1008z" />
<glyph unicode="&#xf048;" d="M34 1008h201l269 -437l269 437h201l-378 -605v-403h-184v403z" />
<glyph unicode="&#xf049;" d="M652 705q50 0 86 -33t36 -80t-36 -80.5t-86 -33.5t-85.5 33.5t-35.5 80.5t35.5 80t85.5 33zM960 528q22 15 34 0.5t-3 -35.5q-67 -84 -209 -142q53 -179 -26 -281q-49 -65 -124 -70q-67 -4 -98 45q-17 26 -16 63q0 103 -1 183q-16 4 -26 7q-1 -81 -1 -190q2 -72 -57 -98 q-58 -26 -124 10q-81 45 -99 151q-14 80 16 180q-142 58 -209 142q-15 21 -3 35.5t34 -0.5q8 -6 12 -8v390q0 40 26.5 69t64.5 29h707q37 0 63.5 -28.5t26.5 -69.5v-390q2 2 6 4t6 4zM584 432q38 0 79.5 -2.5t108 12.5t128.5 49v375q0 48 -18 69t-62 21h-626 q-47 0 -63.5 -19t-16.5 -71v-379q61 -31 126 -45t105.5 -12t78.5 2q36 1 54 -15q2 -3 5 -5q23 -21 35 -29q3 52 66 49zM370 705q50 0 85.5 -33t35.5 -80t-35.5 -80.5t-85.5 -33.5q-51 0 -86.5 33.5t-35.5 80.5t35.5 80t86.5 33z" />
<glyph unicode="&#xf04a;" d="M504 745h-88v-263h88v263zM745 745h-88v-263h88v263zM745 285l153 153v482h-723v-635h198v-131l131 131h241zM986 394l-263 -262h-197l-132 -132h-131v132h-241v701l66 175h898v-614z" />
<glyph unicode="&#xf04b;" horiz-adv-x="864" d="M435 266v-71q-1 -164 -4 -172q-6 -19 -28 -22q-31 -5 -103 21t-91 50q-7 9 -9 20q-1 7 2 15q2 7 74 92q9 11 14.5 17t14.5 17.5t18 21.5q1 0 33 39q20 23 51 12q28 -11 28 -40zM351 407q-2 -30 -29 -39l-68 -22q-157 -50 -164 -49q-21 0 -30 20q-7 12 -10 42 q-5 43 0.5 94t17.5 70q10 18 31 18q7 -1 178 -70l48 -19q28 -11 26 -45zM816 240q-4 -30 -51.5 -90t-76.5 -72q-21 -8 -36 4q-8 6 -103 161l-27 44q-15 27 5 51q19 25 47 15q1 0 67 -22q155 -51 162 -56q16 -13 13 -35zM438 596q2 -57 -31 -69q-33 -8 -64 40l-212 337 q-5 19 10 34q23 24 116.5 50t126.5 18q22 -5 28 -25q6 -40 26 -385zM810 535q2 -22 -15 -33q-7 -5 -185 -48q-44 -11 -51 -14l1 2q-29 -8 -47 20q-17 25 0 49q1 0 42 57q96 131 104 137q15 11 36 1q28 -14 70 -76t45 -94v-1z" />
<glyph unicode="&#xf04c;" horiz-adv-x="994" d="M882 849q112 -57 112 -203q0 -160 -134 -259q-132 -98 -370 -98h-37q-19 0 -35.5 -13t-21.5 -32l-44 -191q-5 -22 -24.5 -37.5t-41.5 -15.5h-129q-20 0 -33 12t-13 31q0 7 8 39h91q21 0 39.5 14.5t22.5 34.5l44 191q4 20 22.5 34.5t39.5 14.5h36q237 0 368 97 q132 97 132 255q0 79 -32 126zM519 1008q59 0 106 -5t97 -20.5t83.5 -42t55.5 -73t22 -109.5q0 -160 -134 -259q-134 -98 -371 -98h-36q-19 0 -35.5 -13t-21.5 -32l-44 -191q-5 -22 -25 -37.5t-42 -15.5h-129q-19 0 -32 12t-13 31q0 8 1 12l182 788q5 22 25 37.5t42 15.5 h269zM413 579q42 0 78 7.5t68 25t50.5 50t18.5 76.5q0 96 -144 96h-42q-19 0 -35.5 -13t-21.5 -32l-39 -167q0 -1 -0.5 -4.5t-0.5 -5.5q0 -15 10.5 -24t25.5 -9h32z" />
<glyph unicode="&#xf04d;" d="M882 950q10 -19 25 -54t39 -130.5t31.5 -194t-15 -238t-82.5 -270.5q-13 -29 -40 -46t-58 -17q-24 0 -44 10q-41 19 -56.5 60.5t3.5 81.5q48 105 66 216t11.5 191.5t-24 151.5t-30.5 102t-17 38q-20 39 -7 81.5t53 63.5q24 12 50 12q29 0 55 -15.5t40 -42.5zM431 883 q28 0 53.5 -15t38.5 -42q6 -13 12 -27t22 -61t25.5 -91t15.5 -109.5t0.5 -124t-28.5 -127t-64 -126.5q-30 -44 -84 -44q-33 0 -59 19q-35 24 -42.5 66t17.5 77q36 51 49 117.5t7.5 122.5t-19 108t-24 79t-13.5 31q-19 37 -5 77.5t52 59.5q21 10 46 10zM326 653 q67 -218 -17 -345q-13 49 -41 95.5t-57 76t-61 55t-46.5 34.5t-20.5 12q-37 20 -49 60.5t8 77.5t61.5 49t78.5 -8l8 -4q7 -5 16 -10.5t23.5 -15.5t29 -20.5t32.5 -25.5t35 -31zM713 631q16 -102 5 -210q-10 -95 -44 -188q-10 76 -39 149q15 101 -2 218q-17 113 -58 208 q73 -60 129 -128q6 -32 9 -49z" />
<glyph unicode="&#xf04e;" horiz-adv-x="720" d="M536 796l-64 -185l66 -12q93 252 93 291q0 32 -22 32q-29 0 -73 -126zM368 409q3 -8 9.5 -24.5t9.5 -24.5q21 23 39 37l-18 3t-22 4t-18 5zM204 913q0 -51 89 -293q10 6 27 6q1 0 43 -3l-68 197q-1 1 -5 13.5t-7.5 21t-9 23t-11 25t-11.5 20.5t-12.5 15.5t-12.5 5.5 q-22 0 -22 -31zM159 486q0 -32 61 -112t91 -80q7 0 13.5 7t6.5 15q0 3 -17 58q-67 154 -115 154q-11 0 -25.5 -15.5t-14.5 -26.5zM70 297q0 -20 14 -58q34 -82 104 -128t158 -46q127 0 215 96q86 94 86 240q0 82 -25 104q-31 28 -118.5 42.5t-152.5 14.5q-22 0 -28 -6 q-6 -3 -6 -19q0 -80 223 -78h13q14 0 22 -11q9 -10 11 -31q-13 -14 -54 -31q-33 -11 -52 -25q-36 -26 -61 -64.5t-25 -77.5q0 -17 10 -49.5t10 -48.5q0 -11 -4 -15q-75 5 -82 121q-3 -1 -22 -1q0 -2 0.5 -6t0.5 -6q0 -30 -23 -50.5t-53 -20.5q-47 0 -94.5 44t-47.5 90 q0 18 19 37q5 -7 17 -21t17 -21q43 -59 75 -59q7 0 14.5 5t7.5 11q0 20 -49 82.5t-65 62.5q-24 0 -39.5 -25.5t-15.5 -51.5zM6 293q0 113 101 141q-16 43 -16 58q0 35 34.5 69.5t68.5 34.5q17 0 40 -9q-92 257 -92 319q0 45 23 73.5t67 28.5q74 0 187 -340q3 7 20.5 55.5 t33 86t38.5 83t48 71t50 25.5q41 0 63.5 -27t22.5 -69q0 -61 -89 -309q65 -16 86.5 -62.5t21.5 -122.5q0 -172 -102.5 -285.5t-273.5 -113.5q-61 0 -125 24q-84 31 -145.5 107t-61.5 162z" />
<glyph unicode="&#xf050;" horiz-adv-x="1152" d="M981 458h-68q7 18 33 88l2 4q1 5 4 13t5 13l5 -27zM270 490l-28 145q-5 27 -37 27h-132l-1 -7q153 -39 198 -165zM359 661l-80 -215l-9 44q-13 34 -42 63.5t-64 43.5l66 -251h87l128 315h-86zM427 346h82l51 316h-82zM805 654q-35 13 -73 13q-61 0 -99.5 -29t-38.5 -75 q-1 -51 71 -86q25 -12 34 -20.5t8 -18.5q0 -15 -14.5 -23t-33.5 -8q-42 0 -77 16l-11 5l-11 -70q36 -17 91 -17q64 0 102.5 29.5t39.5 78.5q0 52 -69 86q-25 12 -35.5 20.5t-10.5 18.5q1 11 13 19t34 8q37 0 61 -12l8 -4zM1014 661h-63q-32 0 -43 -26l-121 -290h86l17 48 h104q3 -11 10 -48h76zM1152 936v-864h-1152v864h1152z" />
<glyph unicode="&#xf051;" horiz-adv-x="1152" d="M305 483h-7q-27 0 -27 -18q0 -12 12 -12q22 0 22 30zM528 503h34q3 2 0 12t-14 10q-15 0 -20 -22zM832 483h-7q-27 0 -27 -18q0 -12 11 -12q21 0 23 30zM1011 498q0 23 -17 23q-10 0 -17 -11.5t-7 -28.5q0 -24 16 -24q11 0 18 11.5t7 29.5zM198 577h49l-25 -148h-31 l18 114l-40 -114h-22l-3 113l-19 -113h-29l24 148h46l1 -91zM340 517q0 -4 -2 -24q-8 -47 -10 -64h-26l1 13q-12 -15 -33 -15q-13 0 -21 9.5t-8 23.5q0 46 55 46q9 0 13 -1q1 4 1 8q0 11 -20 11q-8 0 -33 -5q0 2 4 27q24 6 38 6q41 0 41 -35zM428 550l-5 -28q-16 2 -22 2 q-16 0 -16 -10q0 -4 2.5 -6t12.5 -7q22 -10 22 -34q0 -40 -49 -40q-22 1 -32 4q0 1 4 28q13 -5 28 -5q18 0 18 11q0 6 -14 13q-24 11 -24 33q0 41 47 41q12 0 28 -2zM477 549h17l-5 -28h-16q-9 -52 -9 -55q0 -9 11 -9q6 0 9 1l-5 -27q-16 -4 -22 -4q-25 0 -25 27q0 6 4 32 q2 11 14 82h31zM592 509q0 -14 -4 -30h-63q-3 -24 28 -24q17 0 32 7l-5 -30q-18 -5 -32 -5q-54 0 -54 54q0 31 16 51t39 20q19 0 31 -12t12 -31zM670 550q-7 -11 -12 -35q-13 1 -18 -13.5t-14 -72.5h-31l1 9q12 65 16 111h29q1 -3 0 -9.5t-1 -8.5q15 23 30 19zM775 573 l-5 -32q-15 8 -28 8q-18 0 -29 -15.5t-11 -39.5q0 -36 29 -36q13 0 27 7l-5 -33q-20 -5 -28 -5q-25 0 -40 17.5t-15 46.5q0 40 20 65t51 25q18 0 34 -8zM866 517q0 -4 -2 -24q-8 -47 -10 -64h-26l1 13q-12 -15 -33 -15q-13 0 -21 9.5t-8 23.5q0 46 55 46q9 0 13 -1l2 8 q0 11 -21 11q-8 0 -33 -5q0 2 4 27q24 6 38 6q41 0 41 -35zM946 550q-7 -11 -12 -35q-13 1 -18 -13.5t-14 -72.5h-32l2 9q9 46 16 111h29q1 -3 -2 -18q16 22 31 19zM1025 577h31l-24 -148h-30l2 12q-13 -14 -29 -14q-17 0 -27.5 13.5t-10.5 36.5q0 30 15 52t36 22 q19 0 30 -17zM1087 504q0 127 -89.5 216.5t-216.5 89.5q-103 0 -184 -62q72 -66 96 -159h-28q-24 83 -89 142q-65 -59 -89 -142h-28q24 93 96 159q-81 62 -184 62q-127 0 -216.5 -89.5t-89.5 -216.5t89.5 -216.5t216.5 -89.5q103 0 184 62q-68 63 -93 149h29q24 -78 85 -132 q61 54 85 132h29q-25 -86 -93 -149q81 -62 184 -62q127 0 216.5 89.5t89.5 216.5zM1152 936v-864h-1152v864h1152z" />
<glyph unicode="&#xf052;" horiz-adv-x="1152" d="M173 579q0 -24 -18 -40q-14 -13 -43 -13h-8v107h8q29 0 43 -13q18 -16 18 -41zM1033 611q0 -25 -30 -25h-10v49h10q30 0 30 -24zM205 579q0 36 -24.5 58.5t-62.5 22.5h-46v-161h46q36 0 58 18q29 24 29 62zM220 499h31v161h-31v-161zM375 548q0 19 -10 29.5t-37 20.5 q-24 9 -24 21q0 17 23 17q14 0 26 -13l16 22q-19 18 -47 18q-22 0 -36.5 -13t-14.5 -33q0 -17 8.5 -27t31.5 -18q17 -6 22 -9q9 -6 9 -17q0 -10 -7 -16.5t-17 -6.5q-22 0 -35 22l-20 -20q21 -30 56 -30q25 0 40.5 14.5t15.5 38.5zM261 108h855v305q-84 -62 -312.5 -154 t-542.5 -151zM510 504v37q-18 -17 -39 -17q-23 0 -38.5 15.5t-15.5 39.5t15 40t38 16q21 0 40 -18v37q-20 10 -39 10q-36 0 -61 -25t-25 -60t24.5 -59.5t60.5 -24.5q18 0 40 9zM694 578q0 37 -25.5 62.5t-62.5 25.5q-36 0 -61.5 -25.5t-25.5 -62.5q0 -36 25.5 -61.5 t61.5 -25.5q37 0 62.5 25.5t25.5 61.5zM768 494l69 166h-34l-43 -108l-44 108h-34l69 -166h17zM852 499h89v27h-58v44h56v27h-56v36h58v27h-89v-161zM1041 499h39l-51 68q37 6 37 45q0 48 -57 48h-47v-161h31v64h5zM1152 936v-864h-1152v864h1152z" />
<glyph unicode="&#xf053;" horiz-adv-x="1152" d="M573 449q55 0 55 -45q0 -11 -3 -19.5t-10 -13t-13 -7.5t-17.5 -4t-18 -1.5t-19 0t-16.5 0.5v-45h-63l-40 44l-41 -44h-129v135h131l39 -44l42 44h103zM370 342l37 40l-35 39h-81v-25h71v-27h-71v-27h79zM499 326v109l-50 -54zM573 387q20 0 20 17t-20 17h-42v-34h42z M899 421h-76v-25h74v-27h-74v-27h76v-28h-108v135h108v-28zM773 413q0 -28 -23 -36q21 -8 21 -37v-26h-32v17q0 20 -5 26t-24 6h-35v-49h-32v135h77q53 0 53 -36zM716 391q21 0 21 15t-21 15h-41v-30h41zM257 590l39 92h54v-135h-34v106l-47 -106h-28l-47 106v-106h-66 l-12 30h-68l-12 -30h-36l58 135h48l56 -128v128h52zM60 605h44l-22 54zM1152 420h-59q-18 0 -18 -12q0 -10 14.5 -11t34.5 -2.5t28 -12.5v-51q-12 -17 -44 -17h-62v29h62q17 0 17 12q0 9 -13 11.5t-29 2t-29 9t-13 31.5q0 19 13 29.5t34 10.5h64v27h-60q-25 0 -40 -11v11 h-89q-28 0 -39 -11v11h-158v-11q-15 11 -44 11h-104v-11q-11 11 -46 11h-117l-26 -29l-25 29h-175v-189h171l28 29l26 -29h105v44q38 0 56 7v-51h87v49q10 0 10 -5v-44h265q28 0 44 12v-12h84q28 0 47 9v-224h-1152v448h55l13 30h28l12 -30h109v23l10 -23h56l10 24v-24h270 v50h2q8 0 8 -7v-43h140v12q21 -12 52 -12h59l13 30h28l12 -30h113v29l17 -29h91v189h-90v-22l-12 22h-92v-22l-12 22h-125q-33 0 -54 -11v11h-86v-11q-12 11 -36 11h-315l-21 -49l-21 49h-99v-22l-11 22h-85l-39 -90v317h1152v-516zM919 343h62q17 0 17 12q0 9 -13 11.5 t-28.5 2t-28.5 9t-13 31.5q0 19 13 29.5t33 10.5h65v-29h-59q-18 0 -18 -12q0 -9 13 -11t29 -1t29 -8.5t13 -31.5q0 -42 -51 -42h-63v29zM482 654h-76v-24h74v-28h-74v-27h76v-28h-108v135h108v-28zM634 646q0 -28 -22 -36q21 -8 21 -37v-26h-33v17q0 20 -4.5 26t-24.5 6 h-34v-49h-33v135h77q53 0 53 -36zM577 624q22 0 22 16q0 14 -21 14h-41v-30h40zM800 653q-4 0 -14.5 0.5t-14.5 0t-11.5 -1.5t-10.5 -3.5t-7 -6.5t-5.5 -11t-1.5 -16q0 -39 32 -39h14l46 106h48l55 -128v128h49l57 -94v94h34v-135h-46l-62 101v-101h-66l-12 30h-68l-12 -30 h-38q-64 0 -64 66q0 69 67 69h31v-29zM850 659l-22 -54h45zM653 682h33v-135h-33v135z" />
<glyph unicode="&#xf054;" horiz-adv-x="1152" d="M206 554q-15 -10 -38 -10h-8q-12 0 -9 12l9 39q4 12 15 12h9q18 0 27 -6q8 -5 8 -18q0 -19 -13 -29zM363 475q-3 -3 -11 -7q-9 -3 -16 -3q-12 0 -17 3q-6 4 -6 12q0 10 4 14q5 6 13 9q9 4 20 5q14 2 22 2q2 0 2 -1v-3q0 -4 -6 -25q0 -6 -5 -6zM755 554q-13 -10 -38 -10 h-8q-11 0 -9 11l9 39q3 12 15 12h10q17 0 26 -6t9 -18q0 -19 -14 -28zM913 474l-12 -6q-9 -3 -16 -3q-11 0 -17 3t-6 11q0 11 4 15q4 5 13 9q7 2 20 4q21 3 23 3t2 -4q-3 -7 -6 -25q-1 -3 -5 -7zM271 615q-6 11 -16 18q-12 6 -27 9t-35 3h-64q-12 0 -14 -11l-43 -186 q-2 -11 9 -11h31q12 0 14 11l11 45q2 12 14 12h9q55 0 86 22q31 24 31 61q0 16 -6 27zM417 588q-17 10 -54 10q-17 0 -37 -3q-10 -1 -15 -3q-11 -2 -14 -14l-3 -15q-3 -5 -0.5 -7t3 -2h3.5q12 5 18 6q18 4 28 4q15 0 27 -4q10 -4 10 -14q0 -3 -1 -4q0 -3 -4 -3 q-13 -1 -45 -5q-23 -3 -38 -10q-18 -9 -26 -21q-9 -13 -9 -32q0 -18 12 -28q12 -11 32 -11q15 0 19 2q10 2 15 5q6 1 12 6q7 4 12 8l-1 -5v0q-3 -10 8 -12v0h24h4q11 2 13 12l22 95q0 2 1 4.5t1 3.5v7q0 21 -17 30zM586 596q-12 0 -19 -12l-47 -82q-5 -7 -5 0q0 2 -14 82 q-2 12 -16 12l-27 -1q-12 0 -10 -11l25 -145q2 -15 0 -18l-27 -47q-7 -11 5 -11h31q12 0 19 11l121 204l1 18h-37zM820 614q-3 9 -16 18q-11 7 -27 10q-20 2 -35 2h-63q-11 0 -15 -11l-42 -186q-4 -11 9 -11h30q11 0 15 11l10 45q2 12 14 12h9q55 0 86 23q31 22 31 60 q0 17 -6 27zM966 588q-16 10 -54 10q-18 0 -36 -3q-5 -1 -9.5 -2t-6.5 -1q-10 -3 -13 -14l-4 -15q-1 -5 0.5 -7t2.5 -2h3l18 6q20 4 28 4q21 -2 28 -4q9 -4 9 -14v-4q-2 -3 -5 -3q-15 -1 -44 -5q-21 -3 -39 -11t-26 -20q-9 -13 -9 -32q0 -17 13 -28q11 -11 32 -11q14 0 19 1 q2 1 7 2.5t7 2.5q8 4 13 7q2 1 5.5 3.5t5.5 4.5l-1 -5v0q-2 -10 8 -12h1h23h4h1q10 2 13 12l22 95q0 1 0.5 3.5t0.5 4.5v7q0 22 -17 30zM1071 643h-27h-1q-10 0 -14 -11v-1l-2 -8l-37 -168l-2 -7q-2 -10 9 -12h28q10 0 14 11v1l41 183q2 12 -9 12zM1152 936v-864h-1152v864 h1152z" />
<glyph unicode="&#xf055;" horiz-adv-x="1152" d="M795 501q0 -70 -36 -70q-10 0 -20 5v110q14 14 28 14q28 0 28 -59zM1011 518h-55q3 49 28 49q24 0 27 -49zM243 452q0 26 -15.5 43.5t-34 23t-34 13.5t-15.5 17q0 13 19 13q27 0 61 -16l9 55q-33 16 -74 16q-36 0 -60 -18.5t-24 -54.5q0 -26 15.5 -43t34 -23t34 -13.5 t15.5 -18.5q0 -15 -23 -15q-36 0 -70 21l-9 -56q35 -20 83 -20q39 0 63.5 19t24.5 57zM389 557l9 55h-47v67l-64 -11l-9 -56l-22 -3l-9 -52h31v-107q0 -74 76 -74q20 0 39 6v58q-14 -4 -22 -4q-20 0 -20 25v96h38zM544 545v69q-4 1 -14 1q-34 0 -44 -30l-4 27h-65v-231h74 v150q18 22 53 14zM562 381h74v231h-74v-231zM868 503q0 114 -76 114q-32 0 -58 -28l-4 23h-65v-317l74 12v75q17 -6 33 -6q51 0 73.5 36.5t22.5 90.5zM638 674q0 16 -11.5 27.5t-27.5 11.5t-27.5 -11.5t-11.5 -27.5t11.5 -27.5t27.5 -11.5t27.5 11.5t11.5 27.5zM1080 498 q0 52 -22.5 85.5t-72.5 33.5t-75.5 -34.5t-25.5 -86.5q0 -120 110 -120q50 0 79 20l-8 50q-29 -15 -63 -15q-41 0 -45 42h122q1 8 1 25zM1152 936v-864h-1152v864h1152z" />
<glyph unicode="&#xf056;" horiz-adv-x="1152" d="M830 685v-3q10 -51 33.5 -70t79.5 -34q209 -59 209 -213q0 -94 -68 -156t-163 -62q-38 0 -71.5 12t-59 29.5t-50 47.5t-40.5 56t-34 66t-28 66.5t-25.5 68.5t-23.5 61q-27 70 -53.5 110.5t-74 66t-117.5 25.5q-102 0 -173 -84q-66 -77 -66 -160v-3q1 -105 67.5 -181 t171.5 -76q113 0 165 61q35 40 53 75l55 -98q-11 -22 -29 -45h1q-84 -98 -249 -98q-147 0 -241 105.5t-99 253.5v2q-3 89 44 171t128.5 132t172.5 50q133 0 211.5 -67t131.5 -202q7 -17 24.5 -65.5t30.5 -81.5t28 -64q62 -129 153 -129q51 0 87.5 32t35.5 82v5 q0 23 -12 41.5t-34.5 30.5t-40 19t-43.5 14q-59 19 -66 22q-105 44 -125 169q-1 6 -1 20q0 71 56 123.5t127 50.5q50 -2 77.5 -9t58.5 -34q8 -7 15 -16.5t15.5 -22t12.5 -18.5l-83 -64q-17 32 -35 45l1 1q-15 13 -66 13q-28 0 -51 -21t-23 -50z" />
<glyph unicode="&#xf057;" d="M745 405q21 -10 24 -15q3 -2 0.5 -21t-10.5 -38q-8 -20 -38 -38t-49 -19q-2 0 -15.5 -2t-22.5 -0.5t-38.5 11t-74.5 28.5q-26 11 -51 27.5t-44.5 34.5t-37 36t-31 35.5t-22.5 30t-15 23.5l-7 10q-49 73 -47 132q2 57 48 103q16 16 34 14q9 0 25 -2h3h5t4.5 -1t5.5 -3.5 t4.5 -7t4.5 -10.5q4 -10 12.5 -33t15.5 -40.5t8 -20.5q5 -12 0 -22q-11 -17 -14 -21q-12 -14 -19 -21q-14 -12 -7 -25q28 -52 67 -90q16 -15 33.5 -28t28.5 -19t23 -12l14 -7q18 -8 28 3q27 27 42 47q10 13 28 5q22 -7 85 -44zM513 108q170 0 291 120t121 289t-121 289 t-291 120t-291 -120t-121 -289q0 -133 79 -240l-52 -151l159 50q103 -68 226 -68zM513 1008q134 0 248 -65.5t180.5 -179t66.5 -246.5t-66.5 -246.5t-180.5 -179t-248 -65.5q-128 0 -239 61l-274 -87l89 263q-71 117 -71 254q0 133 66.5 246.5t180.5 179t248 65.5z" />
<glyph unicode="&#xf058;" horiz-adv-x="1152" d="M1152 960v-134h-46q-12 0 -26 -14.5t-14 -25.5v-567q0 -11 14 -24t26 -13h46v-134h-413v134h87v596h-5l-201 -730h-157l-199 730h-5v-596h87v-134h-346v134h44q13 0 27.5 13t14.5 24v567q0 12 -14.5 26t-27.5 14h-44v134h432l142 -528h4l143 528h431z" />
<glyph unicode="&#xf059;" d="M870 550v-77q0 -35 -35 -35h-136q-35 0 -35 35v77q0 35 35 35h136q35 0 35 -35zM539 394v169q0 36 -22 58t-58 22h-90q-47 0 -64 -36q-19 36 -65 36h-88q-36 0 -58 -22t-22 -58v-169q0 -14 15 -14h37q14 0 14 14v156q0 35 35 35h64q35 0 35 -35v-156q0 -14 14 -14h37 q15 0 15 14v156q0 35 35 35h65q35 0 35 -35v-156q0 -14 14 -14h37q15 0 15 14zM936 459v104q0 36 -22 58t-58 22h-179q-35 0 -57 -22t-22 -58v-276q0 -15 14 -15h37q15 0 15 15v121q19 -28 63 -28h129q36 0 58 22t22 57zM1008 972v-936q0 -15 -10.5 -25.5t-25.5 -10.5h-936 q-15 0 -25.5 10.5t-10.5 25.5v936q0 15 10.5 25.5t25.5 10.5h936q15 0 25.5 -10.5t10.5 -25.5z" />
<glyph unicode="&#xf05a;" horiz-adv-x="1152" d="M789 515v-103q0 -22 12.5 -34t34.5 -12h181q22 0 34.5 12t12.5 34v103q0 22 -12.5 34t-34.5 12h-181q-22 0 -34.5 -12t-12.5 -34zM1045 288h-172q-57 0 -84 38v-162q0 -19 -19 -19h-50q-19 0 -19 19v369q0 48 29.5 77t76.5 29h238q48 0 77.5 -29t29.5 -77v-139 q0 -47 -29.5 -76.5t-77.5 -29.5zM220 561h-85q-22 0 -34.5 -12t-12.5 -34v-207q0 -20 -19 -20h-49q-20 0 -20 20v225q0 48 29.5 77t77.5 29h117q60 0 86 -47q26 47 87 47h119q48 0 77.5 -29t29.5 -77v-225q0 -20 -20 -20h-49q-20 0 -20 20v207q0 46 -46 46h-87 q-22 0 -34.5 -12t-12.5 -34v-207q0 -20 -19 -20h-49q-20 0 -20 20v207q0 46 -46 46z" />
<glyph unicode="&#xf05b;" horiz-adv-x="864" d="M826 388q-23 -57 -56.5 -94.5t-69 -51t-73 -16t-70 6t-59 17.5t-41.5 18l-15 9q-63 -129 -162.5 -203t-216.5 -74q-11 0 -18 7t-7 18t7 18t18 7q97 0 181.5 60t141.5 166q-30 -11 -59 -17t-69 -2t-74 21.5t-69.5 59.5t-60.5 107q64 26 120 31.5t94.5 -4t70.5 -31.5 t50 -43.5t32 -46.5q30 80 44 164q-6 -1 -16.5 -2t-40.5 -1t-58 4.5t-62.5 17.5t-60.5 34.5t-46 60t-24 88.5q73 27 126.5 21t89.5 -34.5t58 -60.5t31 -58l9 -26q1 15 2.5 42.5t3 47t1.5 20.5q-9 6 -23 17.5t-44 47.5t-45.5 73.5t-10.5 92.5t44 108q52 -18 87.5 -46t50 -58.5 t20 -63.5t0 -62.5t-12 -52.5t-12.5 -37l-7 -14q1 -3 1 -28t-1 -40q2 4 5.5 10.5t17 24t29 32.5t40 31t51.5 25t63.5 8.5t74.5 -13.5q-2 -56 -19 -98.5t-43 -65.5t-56.5 -37.5t-61 -17.5t-56 -3.5t-40.5 2.5l-16 2q-13 -82 -41 -160q7 8 19.5 19.5t52 36.5t79 36t95.5 1 t107 -51z" />
<glyph unicode="&#xf05c;" />
<glyph unicode="&#xf05d;" />
<glyph unicode="&#xf05e;" />
<glyph unicode="&#xf060;" horiz-adv-x="1152" d="M1104 718q20 0 34 -14t14 -34t-14 -34t-34 -14h-74q10 -52 10 -95q0 -192 -136 -328t-328 -136q-138 0 -251.5 75t-169.5 197h-107q-20 0 -34 14t-14 34t14 34t34 14h75q-10 44 -10 96q0 191 136 327t327 136q138 0 252 -75t170 -197h106zM943 527q0 49 -12 95h-553 q-20 0 -34 14t-14 34t14 34t34 14h511q-50 80 -133 127.5t-180 47.5q-152 0 -259.5 -107.5t-107.5 -258.5q0 -46 13 -96h553q20 0 34 -14t14 -34t-14 -34t-34 -14h-511q49 -80 132 -127.5t180 -47.5q152 0 259.5 107.5t107.5 259.5zM331 527q0 20 14.5 34t34.5 14h395 q19 0 33.5 -14.5t14.5 -33.5q0 -20 -14 -34.5t-34 -14.5h-395q-20 0 -34.5 14.5t-14.5 34.5z" />
<glyph unicode="&#xf061;" d="M608 370h-208l104 388zM668 144h219l-228 720h-309l-229 -720h219v0l269 221zM900 0h-792q-45 0 -76.5 31.5t-31.5 76.5v792q0 45 31.5 76.5t76.5 31.5h792q45 0 76.5 -31.5t31.5 -76.5v-792q0 -45 -31.5 -76.5t-76.5 -31.5z" />
<glyph unicode="&#xf062;" horiz-adv-x="1152" d="M1112 0h-306l-83 309l-377 -309v0h-306l320 1008h432zM431 317h290l-145 542z" />
<glyph unicode="&#xf063;" horiz-adv-x="1152" d="M1152 505q0 -27 -26 -32l-115 -200q2 -6 2 -10q0 -26 -26 -31l-108 -190q1 -3 1 -9q0 -13 -9.5 -22.5t-22.5 -9.5t-23 10h-225q-11 -11 -24 -11t-24 11h-224q-11 -11 -25 -11q-13 0 -22.5 9.5t-9.5 22.5q0 6 3 11l-109 189q-11 2 -18.5 10.5t-7.5 20.5q0 4 2 10l-116 200 q-11 2 -18 11t-7 21q0 11 8 20t19 11l111 193v4q0 20 19 29l117 204q-1 3 -1 10q0 13 9 22.5t22 9.5q15 0 25 -12h223q9 12 24 12t24 -12h224q10 12 25 12q13 0 22.5 -9.5t9.5 -22.5q0 -4 -2 -10l116 -202q13 0 22 -9t9 -22q0 -7 -4 -15l105 -182q25 -7 25 -31zM598 55h218 l-192 199h-80l-193 -199h203q11 9 22 9t22 -9zM63 512q0 -1 0.5 -3.5t0.5 -3.5q0 -2 -0.5 -5t-0.5 -4l116 -202q6 -2 9 -4l106 112v195l-106 110q-6 -6 -16 -6zM554 953h-217l106 -113l312 113h-157q-9 -9 -22 -9t-22 9zM950 271q0 1 1 3.5t2 3.5l-36 38l-10 -45h43z M890 271l13 59l-142 150l-166 -173l35 -36h260zM841 64l9 16l37 174h-241l188 -193q1 1 7 3zM325 55h3l192 199h-209v-188l2 -4q6 -1 12 -7zM311 271h226l35 37l-173 181l-88 -94v-124zM202 271h92v106l-95 -99q1 -1 2 -3.5t1 -3.5zM201 735q1 -1 1 -2q0 -9 -5 -16l97 -100 v151zM311 775v-175l86 -89l167 177l-126 133zM313 945l-2 -4v-149l115 42l-108 113q-1 0 -5 -2zM814 953h-9l-349 -126l119 -127zM576 676l-167 -177l174 -180l167 173zM387 501l-76 79v-160zM584 296l-24 -25h48zM773 492l134 -142l74 352l-2 2v1zM966 716q-4 10 -4 17v1 l-122 211q-1 1 -3.5 2t-3.5 1l-246 -260l174 -184zM294 786v126l-92 -159zM294 254h-92l92 -159v159zM904 254l-27 -128l73 128h-46zM973 294l116 203q0 1 -0.5 3.5t-0.5 4.5q0 4 2 8l-97 167l-72 -344l43 -46q3 2 9 4z" />
<glyph unicode="&#xf064;" horiz-adv-x="864" d="M176 806h418l198 202v-827q0 -75 -51.5 -128t-124.5 -53h-440q-73 0 -124.5 53t-51.5 128v445q0 74 51.5 127t124.5 53zM693 202l-99 100v240q0 26 -18 44.5t-44 18.5h-272q-26 0 -44 -18.5t-18 -44.5v-277q0 -26 18 -44.5t44 -18.5h433z" />
<glyph unicode="&#xf065;" d="M613 996q-208 -80 -365 -239t-235 -369q-29 126 5.5 252t128.5 220q93 94 217 129t249 7zM857 860q21 -19 40 -45q-255 -74 -442 -263.5t-261 -446.5q-27 22 -47 42q-27 27 -55 65q73 254 259 442t438 263q37 -25 68 -57zM308 38q77 235 250 410t406 253q27 -61 36 -128 q-193 -79 -339.5 -227t-224.5 -342q-63 7 -128 34zM1008 0q-75 20 -156 45q-56 20 -85 30q-87 -55 -190 -70q72 135 180 244t242 182q-13 -97 -67 -188q22 -58 31 -86q20 -62 45 -157z" />
<glyph unicode="&#xf066;" horiz-adv-x="1152" d="M1065 788l87 -716q-72 0 -145 32q-112 51 -220 51q-128 0 -211 -83q-83 83 -211 83q-108 0 -220 -51q-74 -32 -142 -32h-3l87 716q126 71 271 71q132 0 218 -60q86 60 218 60q145 0 271 -71zM787 232q72 0 131 -16t145 -52l-69 574q-99 44 -207 44q-127 0 -211 -80 q-84 80 -211 80q-108 0 -207 -44l-69 -574q86 36 145 52t131 16q117 0 211 -61q94 61 211 61zM809 252l-31 510q-118 -3 -202 -87q-86 87 -211 87q-101 0 -188 -38l-65 -529q138 57 253 57q117 0 211 -57q94 57 211 57h22z" />
<glyph unicode="&#xf067;" horiz-adv-x="1152" d="M844 237v412q0 12 -8.5 20.5t-20.5 8.5h-51q-12 0 -20.5 -8.5t-8.5 -20.5v-412q0 -11 8.5 -19.5t20.5 -8.5h51q12 0 20.5 8.5t8.5 19.5zM684 237v298q0 12 -8.5 20.5t-19.5 8.5h-57q-11 0 -19.5 -8.5t-8.5 -20.5v-298q0 -11 8.5 -19.5t19.5 -8.5h57q11 0 19.5 8.5 t8.5 19.5zM520 237v241q0 12 -8.5 20.5t-19.5 8.5h-57q-11 0 -19.5 -8.5t-8.5 -20.5v-241q0 -11 8.5 -19.5t19.5 -8.5h57q11 0 19.5 8.5t8.5 19.5zM356 237v203q0 12 -8.5 20t-20.5 8h-56q-12 0 -20.5 -8t-8.5 -20v-203q0 -11 8.5 -19.5t20.5 -8.5h56q12 0 20.5 8.5 t8.5 19.5zM1152 319q0 -94 -66.5 -160t-159.5 -66h-700q-93 0 -159.5 66t-66.5 160q0 65 35.5 120.5t94.5 83.5q-6 21 -6 41q0 64 45 109.5t109 45.5q58 0 102 -38q25 103 108.5 168.5t190.5 65.5q127 0 217.5 -90.5t90.5 -217.5q0 -37 -7 -69q75 -18 123.5 -79.5 t48.5 -139.5z" />
<glyph unicode="&#xf068;" horiz-adv-x="864" d="M0 1008h864v-783l-436 -190l-428 190v783zM808 262v521h-752v-521l372 -166zM808 839v113h-752v-113h752zM102 671v-64h-21v64h21zM102 588v-65h-21v65h21zM102 505v-65h-21v65h21zM102 421v-64h-21v64h21zM102 338v-64h-21v64h21zM117 258l8 19l59 -26l-8 -19zM193 224 l8 19l59 -26l-8 -19zM269 190l8 19l59 -26l-8 -19zM345 157l9 19l59 -26l-9 -19zM448 150l59 26l9 -19l-59 -26zM525 183l59 26l8 -19l-59 -26zM601 217l59 26l8 -19l-59 -26zM677 251l59 26l8 -19l-59 -26zM146 926v-21h-65v21h65zM237 926v-21h-65v21h65zM328 926v-21h-65 v21h65zM419 926v-21h-65v21h65zM510 926v-21h-65v21h65zM601 926v-21h-65v21h65zM692 926v-21h-65v21h65zM783 926v-21h-65v21h65zM102 734v-44h-21v64h65v-20h-44zM237 754v-20h-65v20h65zM328 754v-20h-65v20h65zM419 754v-20h-65v20h65zM510 754v-20h-65v20h65zM601 754 v-20h-65v20h65zM692 754v-20h-65v20h65zM762 690v44h-44v20h65v-64h-21zM762 607v64h21v-64h-21zM762 523v65h21v-65h-21zM762 440v65h21v-65h-21zM762 357v64h21v-64h-21zM762 274v64h21v-64h-21zM428 293q-73 0 -124.5 51.5t-51.5 124.5t51.5 124.5t124.5 51.5 t124.5 -51.5t51.5 -124.5t-51.5 -124.5t-124.5 -51.5zM335 507q0 -29 23.5 -40.5t51 -9.5t51 -2.5t23.5 -20.5q0 -27 -63 -27q-54 0 -69 28h-2l-17 -35q39 -24 91 -24q23 0 43 4.5t38 18.5t18 37q0 32 -23.5 45t-52.5 11.5t-52.5 1.5t-23.5 16q0 28 58 28q52 0 68 -25h2 l17 33q-58 22 -86 22q-37 0 -66 -14t-29 -47z" />
<glyph unicode="&#xf069;" horiz-adv-x="1152" d="M486 428q0 63 -45 107.5t-108 44.5t-107.5 -44.5t-44.5 -107.5t44.5 -108t107.5 -45t108 45t45 108zM971 428q0 63 -44.5 107.5t-107.5 44.5t-108 -44.5t-45 -107.5t45 -107.5t108 -44.5t107.5 44.5t44.5 107.5zM1152 883v-758q0 -25 -18 -43t-43 -18h-1030q-25 0 -43 18 t-18 43v758q0 25 18 43t43 18h242q25 0 43 -18t18 -43v-91h424v91q0 25 18 43t43 18h242q25 0 43 -18t18 -43z" />
<glyph unicode="&#xf06a;" horiz-adv-x="1152" d="M804 680zM951 565q83 0 142 -55t59 -138q0 -88 -61.5 -147t-150.5 -59q-60 0 -113.5 25t-94 64.5t-79 87.5l-77 96t-78.5 87.5t-93 64.5t-112 25q-86 0 -141.5 -51.5t-55.5 -137.5q0 -88 59 -140.5t148 -52.5q56 0 117.5 21.5t108.5 55.5q3 2 12 10t16.5 13.5t12.5 5.5 q8 0 13.5 -6t5.5 -14q0 -13 -33 -43q-57 -50 -132 -80.5t-147 -30.5q-115 0 -196 74t-81 187q0 115 79.5 192t195.5 77q68 0 127.5 -24.5t104 -63.5t85.5 -86.5t78.5 -94.5t75 -86t84 -63.5t97.5 -24.5q57 0 94.5 34.5t37.5 91.5q0 54 -36.5 89.5t-89.5 35.5 q-17 0 -46 -10.5t-39 -10.5q-11 0 -19.5 8.5t-8.5 20.5q0 10 4.5 32t4.5 33q0 89 -60 147.5t-150 58.5q-42 0 -78 -16.5t-57 -33t-25 -16.5q-8 0 -14.5 6t-6.5 14q0 11 15 26q33 38 82.5 58.5t102.5 20.5q107 0 178.5 -70.5t71.5 -177.5q0 -13 -2 -37q28 8 65 8z" />
<glyph unicode="&#xf06b;" horiz-adv-x="864" d="M864 1008l-108 -252h108v-108h-154l-31 -72h185v-108h-231l-201 -468l-201 468h-231v108h185l-31 72h-154v108h108l-108 252h144l182 -432h212l182 432h144zM432 324l61 144h-122z" />
<glyph unicode="&#xf06c;" d="M870 629q31 0 48.5 -16.5t17.5 -47.5q0 -62 -72 -62h-77v-101h-14v227h97zM922 566q0 24 -14.5 37.5t-38.5 13.5h-82v-102h80q24 0 39.5 13.5t15.5 37.5zM504 185q85 0 159 43t117 117l161 -93q-68 -117 -185 -184.5t-252 -67.5q-208 0 -356 148t-148 356t148 356 t356 148q135 0 252 -67.5t185 -184.5l-437 -252l263 -152q-41 -71 -111 -111.5t-152 -40.5q-125 0 -214.5 89.5t-89.5 214.5t89.5 214.5t214.5 89.5q131 0 223 -98h20q-46 54 -109.5 83.5t-133.5 29.5q-132 0 -225.5 -93.5t-93.5 -225.5t93.5 -225.5t225.5 -93.5z" />
<glyph unicode="&#xf06d;" d="M924 1008q34 0 59 -25t25 -59v-840q0 -34 -25 -59t-59 -25h-840q-34 0 -59 25t-25 59v840q0 34 25 59t59 25h840zM808 207v151h-150v-151h150zM658 508h150q0 125 -88 213t-212 88t-212.5 -88.5t-88.5 -212.5t88.5 -212.5t212.5 -88.5v151q-62 0 -106.5 44t-44.5 106 t44.5 106t106.5 44t106 -44t44 -106z" />
<glyph unicode="&#xf06e;" d="M1008 504h-252q0 104 -74 178t-178 74t-178 -74t-74 -178t74 -178t178 -74v-252q-208 0 -356 148t-148 356t148 356t356 148t356 -148t148 -356zM1008 252v-252h-252v252h252z" />
<glyph unicode="&#xf070;" d="M0 1008h1008v-1008h-1008v1008zM596 792l-8 -19l49 -51l-20 -75l16 -16l71 37l70 -38l16 16l-20 74l49 53l-8 19h-62l-35 72h-21l-35 -72h-62zM420 691q22 0 30 -10.5t7 -41.5l115 14q0 69 -39.5 94t-106.5 25q-87 0 -130.5 -38t-43.5 -120v-38h-72v-90h59q13 0 13 -8 v-251q0 -16 -19 -18l-53 -5v-60h306v60l-99 9q-4 0 -5.5 0.5t-2.5 2t-1 2.5v4.5v6.5v257h125l25 90h-151l1 1v52q0 24 2 35t11 19t29 8zM828 144v60l-41 5q-9 1 -11 4t-2 13v350h-177l-17 -71l55 -19q13 -5 13 -17v-243q0 -9 -2 -12.5t-11 -4.5l-41 -5v-60h234z" />
<glyph unicode="&#xf071;" d="M954 83v-83h-324v83l56 9q12 1 14 5t2 18v340q0 20 -17 24l-75 31l24 102h248v-497v-5q0 -11 2 -14t14 -4zM385 766q-40 0 -50.5 -19.5t-10.5 -67.5v-73v-2l-3 4q0 4 5 4h212l-35 -126h-179v-367q0 -14 3 -18t15 -5l144 -13v-83h-432v85l68 7q22 1 22 24v351q0 19 -11 19 h-79v126h90v46q0 115 62 168t185 53q44 0 78 -6.5t64.5 -23.5t47 -51.5t16.5 -84.5l-160 -20q1 43 -10.5 58t-41.5 15zM621 877l12 23h87l49 108h29l49 -108h87l11 -23l-69 -72l29 -102l-23 -23l-99 53l-98 -52l-23 24l29 104z" />
<glyph unicode="&#xf072;" d="M504 77l208 199l-145 414l145 195h-416l145 -195l-145 -414zM1008 1008v-1008h-1008v1008h1008z" />
<glyph unicode="&#xf073;" horiz-adv-x="576" d="M367 764l181 -516l-260 -248l-260 248l181 516l-181 244h520z" />
<glyph unicode="&#xf074;" />
<glyph unicode="&#xf075;" />
<glyph unicode="&#xf076;" />
<glyph unicode="&#xf077;" />
<glyph unicode="&#xf078;" />
<glyph unicode="&#xf079;" />
<glyph unicode="&#xf07a;" />
<glyph unicode="&#xf07b;" />
<glyph unicode="&#xf07c;" />
<glyph unicode="&#xf07d;" />
<glyph unicode="&#xf07e;" />
<glyph unicode="&#xf080;" />
<glyph unicode="&#xf081;" />
<glyph unicode="&#xf082;" />
<glyph unicode="&#xf083;" />
<glyph unicode="&#xf084;" />
<glyph unicode="&#xf085;" />
<glyph unicode="&#xf086;" />
<glyph unicode="&#xf087;" />
<glyph unicode="&#xf088;" />
<glyph unicode="&#xf089;" />
<glyph unicode="&#xf08a;" />
<glyph unicode="&#xf08b;" />
<glyph unicode="&#xf08c;" />
<glyph unicode="&#xf08d;" />
<glyph unicode="&#xf08e;" />
<glyph unicode="&#xf090;" horiz-adv-x="864" d="M81 809h146q24 0 40 -27l100 -175q-6 -11 -157 -277q-16 -28 -40 -28h-145q-12 0 -19 10q-6 9 0 22l154 273l-98 171q-6 11 -1 22q6 9 20 9zM692 1008h147q13 0 19 -9q7 -10 0 -23l-322 -569v-1l205 -374q7 -13 0 -23q-6 -9 -19 -9h-145q-26 0 -41 28l-206 379 q11 19 323 573q16 28 39 28z" />
<glyph unicode="&#xf091;" horiz-adv-x="1152" d="M564 178q-43 -3 -88 9.5t-79 32.5t-62 39.5t-43 34.5l-14 14q-6 6 -16.5 18t-43 54.5t-64 91t-73.5 127t-78 163.5q-4 10 -3.5 16t2.5 10l2 3q9 11 34 11l164 2q7 -1 14 -4t10 -5l3 -2q9 -7 14 -19q12 -30 27.5 -62.5t25.5 -49.5l9 -17q28 -58 53.5 -91t41.5 -40.5 t29 -0.5q3 2 8 9.5t12 50t4 108.5q-1 24 -5.5 43.5t-7.5 27.5l-4 8q-17 22 -51 25q-11 2 8 20q8 8 17 13q34 16 144 14q51 0 81 -8q17 -4 26 -12t12 -26.5t2.5 -34.5t-2 -53.5t-1.5 -66.5q0 -5 -0.5 -25t0 -29.5t2 -24t7 -24t13.5 -14.5t20 0t38.5 37t62.5 93q36 62 64 135 q2 6 6 10.5t7 6.5l2 2q1 1 3 1.5t8 1.5t12 0l173 1q23 3 38 -1t18 -10l4 -6q14 -38 -90 -176q-14 -19 -34 -45.5t-28.5 -36t-18.5 -27.5t-13 -22t-2.5 -17.5t3 -17t13 -17.5t18.5 -21t29 -26q90 -83 115 -133q2 -3 4 -7.5t4 -16t-0.5 -20.5t-15 -16.5t-35.5 -7.5l-153 -2 q-15 -3 -34 2.5t-31 13.5l-12 7q-22 15 -54 52.5t-57 60t-43 16.5l-5 -2.5t-10 -8.5t-12.5 -17.5t-10 -31t-4.5 -46.5q0 -9 -2 -16.5t-5 -10.5l-2 -3q-11 -12 -31 -14h-69z" />
<glyph unicode="&#xf092;" horiz-adv-x="1152" d="M865 521q58 -17 99 -57t41 -100q0 -55 -38 -112.5t-104 -105.5t-166.5 -78.5t-213.5 -30.5q-122 0 -231 36t-180.5 107.5t-71.5 163.5q0 74 45 158t127 165q109 109 219.5 152t158.5 -4q42 -42 12 -135q-4 -13 3 -16t16 0l9 3q89 37 158 37.5t99 -39.5q29 -40 0 -114 q-4 -17 -0.5 -21t18.5 -9zM484 106q143 14 237.5 90.5t85.5 170.5q-10 94 -117.5 150t-250.5 42t-237.5 -90.5t-85.5 -170.5q10 -94 117.5 -150t250.5 -42zM1073 870q56 -62 73 -143t-9 -155q-5 -18 -21.5 -26t-33.5 -3q-18 6 -26 22t-3 34q18 52 6.5 110t-51.5 102t-95 61 t-111 6q-18 -4 -33.5 6t-19.5 28q-4 17 6 32.5t28 19.5q79 17 157 -7.5t133 -86.5zM957 765q27 -30 35 -69.5t-4 -75.5q-4 -15 -18.5 -22.5t-29.5 -2.5t-22 19t-2 29q13 40 -15 71t-69 23q-16 -4 -29 4.5t-16 24.5q-4 15 4.5 28t24.5 17q84 17 141 -46zM503 463 q71 -19 101.5 -77t1.5 -122q-29 -66 -101.5 -97t-143.5 -8q-69 22 -95 81.5t4 120.5q30 60 97.5 89.5t135.5 12.5zM434 254q13 23 7 45t-29 32q-22 9 -47 0.5t-39 -29.5q-13 -22 -7.5 -44t27.5 -32q23 -10 48.5 -2t39.5 30zM494 332q5 9 2.5 17.5t-11.5 11.5q-20 7 -32 -12 q-5 -8 -2.5 -16.5t11.5 -12.5q8 -3 18 0.5t14 11.5z" />
<glyph unicode="&#xf093;" d="M419 680q0 -165 -83 -301t-217 -201q-119 142 -119 325q0 185 119.5 325.5t299.5 170.5v-319zM502 376q23 -95 87 -176t154 -138q-110 -62 -241 -62q-129 0 -241 62q91 57 154.5 138t86.5 176zM589 680q0 -165 83 -301t217 -201q119 142 119 325q0 185 -119.5 325.5 t-299.5 170.5v-319z" />
<glyph unicode="&#xf094;" horiz-adv-x="720" d="M473 686q0 -45 -31.5 -76.5t-76.5 -31.5q-35 0 -62 19q-34 -36 -65 -82q-138 -207 -114 -483q1 -12 -6.5 -21t-19.5 -11h-3q-11 0 -19.5 7.5t-9.5 19.5q-27 297 125 523q29 44 74 93q-9 23 -9 43q0 45 32 77t77 32t76.5 -32t31.5 -77zM688 680q0 -136 -96 -232t-232 -96 q-38 0 -74 9q-11 2 -17.5 12.5t-4.5 22.5q3 11 13.5 17.5t21.5 4.5q28 -7 61 -7q112 0 191 79t79 190q0 112 -79 191t-191 79t-191 -79t-79 -191q0 -64 30 -123q5 -10 1.5 -22t-14.5 -17q-10 -5 -22 -1.5t-17 14.5q-36 72 -36 149q0 136 96 232t232 96t232 -96t96 -232z" />
<glyph unicode="&#xf095;" d="M152 555q-5 11 -5 29q0 29 20 53q-1 12 4 29.5t13 24.5q0 79 52 162.5t123 117.5q78 37 181 37q75 0 150 -31q48 -20 81 -48.5t54 -70t31.5 -77.5t23.5 -95l1 -3q31 -48 31 -84q0 -8 -5 -23t-5 -21q0 -3 4 -7q92 -138 92 -238q0 -24 -11 -56t-31 -32q-5 0 -11 4.5 t-11 9.5t-10.5 14.5t-8.5 15t-8 14.5t-5 10h-2l-3 -2q-34 -87 -74 -125q11 -11 34.5 -22t39 -24t19.5 -36l-2 -7q-1 -8 -4 -12q-36 -55 -170 -55q-63 0 -188 37q-8 2 -26 2.5t-23 1.5q-24 -26 -72 -37t-94 -11q-26 0 -52.5 2t-66.5 8.5t-65 23.5t-25 42q0 22 5.5 33t23.5 28 q7 1 23 7t27 7q6 0 8 1q2 0 2 2l-2 2q-26 6 -60 59.5t-41 87.5l-3 2q-3 0 -7 -11q-10 -24 -30.5 -42.5t-43.5 -20.5h-1q-2 0 -3.5 2.5t-2.5 2.5q-13 31 -13 57q0 154 142 262z" />
<glyph unicode="&#xf096;" horiz-adv-x="1152" d="M780 689q-145 0 -246 -94t-101 -228q0 -42 13 -86q-13 -1 -38 -1q-41 0 -143 20l-143 -71l41 122q-163 113 -163 275q0 145 119.5 246t288.5 101q150 0 267.5 -81.5t143.5 -204.5q-26 2 -39 2zM561 800q-24 0 -43 -14.5t-19 -36.5t19 -36.5t43 -14.5q23 0 37 14t14 37 t-14 37t-37 14zM275 698q23 0 37 14t14 37t-14 37t-37 14q-24 0 -42.5 -14.5t-18.5 -36.5t18.5 -36.5t42.5 -14.5zM1152 371q0 -128 -143 -234l31 -102l-112 61q-82 -20 -122 -20q-145 0 -246 86t-101 209t101 209.5t246 86.5q139 0 242.5 -87.5t103.5 -208.5zM693 422 q22 0 36.5 12.5t14.5 28.5t-14.5 28.5t-36.5 12.5q-15 0 -28 -12.5t-13 -28.5q0 -15 13 -28t28 -13zM918 422q22 0 36.5 12.5t14.5 28.5t-14.5 28.5t-36.5 12.5q-16 0 -28.5 -12.5t-12.5 -28.5q0 -15 12.5 -28t28.5 -13z" />
<glyph unicode="&#xf097;" />
<glyph unicode="&#xf098;" />
<glyph unicode="&#xf099;" />
<glyph unicode="&#xf09a;" />
<glyph unicode="&#xf09b;" />
<glyph unicode="&#xf09c;" />
<glyph unicode="&#xf09d;" />
<glyph unicode="&#xf09e;" />
<glyph unicode="&#xf0a0;" />
<glyph unicode="&#xf0a1;" />
<glyph unicode="&#xf0a2;" />
<glyph unicode="&#xf0a3;" />
<glyph unicode="&#xf0a4;" />
<glyph unicode="&#xf0a5;" />
<glyph unicode="&#xf0a6;" />
<glyph unicode="&#xf0a7;" />
<glyph unicode="&#xf0a8;" />
<glyph unicode="&#xf0a9;" />
<glyph unicode="&#xf0aa;" />
<glyph unicode="&#xf0ab;" />
<glyph unicode="&#xf0ac;" />
<glyph unicode="&#xf0ad;" />
<glyph unicode="&#xf0ae;" />
<glyph unicode="&#xf0b0;" />
<glyph unicode="&#xf0b1;" />
<glyph unicode="&#xf0b2;" />
<glyph unicode="&#xf0c0;" />
<glyph unicode="&#xf0c1;" />
<glyph unicode="&#xf0c2;" />
<glyph unicode="&#xf0c3;" />
<glyph unicode="&#xf0c4;" />
<glyph unicode="&#xf0c5;" />
<glyph unicode="&#xf0c6;" />
<glyph unicode="&#xf0c7;" />
<glyph unicode="&#xf0c8;" />
<glyph unicode="&#xf0c9;" />
<glyph unicode="&#xf0ca;" />
<glyph unicode="&#xf0cb;" />
<glyph unicode="&#xf0cc;" />
<glyph unicode="&#xf0cd;" />
<glyph unicode="&#xf0ce;" />
<glyph unicode="&#xf0d0;" />
<glyph unicode="&#xf0d1;" />
<glyph unicode="&#xf0d2;" />
<glyph unicode="&#xf0d3;" />
<glyph unicode="&#xf0d4;" />
<glyph unicode="&#xf0d5;" />
<glyph unicode="&#xf0d6;" />
<glyph unicode="&#xf0d7;" />
<glyph unicode="&#xf0d8;" />
<glyph unicode="&#xf0d9;" />
<glyph unicode="&#xf0da;" />
<glyph unicode="&#xf0db;" />
<glyph unicode="&#xf0dc;" />
<glyph unicode="&#xf0dd;" />
<glyph unicode="&#xf0de;" />
<glyph unicode="&#xf0e0;" />
<glyph unicode="&#xf0e1;" />
<glyph unicode="&#xf0e2;" />
<glyph unicode="&#xf0e3;" />
<glyph unicode="&#xf0e4;" />
<glyph unicode="&#xf0e5;" />
<glyph unicode="&#xf0e6;" />
<glyph unicode="&#xf0e7;" />
<glyph unicode="&#xf0e8;" />
<glyph unicode="&#xf0e9;" />
<glyph unicode="&#xf0ea;" />
<glyph unicode="&#xf0eb;" />
<glyph unicode="&#xf0ec;" />
<glyph unicode="&#xf0ed;" />
<glyph unicode="&#xf0ee;" />
<glyph unicode="&#xf0f0;" />
<glyph unicode="&#xf0f1;" />
<glyph unicode="&#xf0f2;" />
<glyph unicode="&#xf0f3;" />
<glyph unicode="&#xf0f4;" />
<glyph unicode="&#xf0f5;" />
<glyph unicode="&#xf0f6;" />
<glyph unicode="&#xf0f7;" />
<glyph unicode="&#xf0f8;" />
<glyph unicode="&#xf0f9;" />
<glyph unicode="&#xf0fa;" />
<glyph unicode="&#xf0fb;" />
<glyph unicode="&#xf0fc;" />
<glyph unicode="&#xf0fd;" />
<glyph unicode="&#xf0fe;" />
<glyph unicode="&#xf100;" />
<glyph unicode="&#xf101;" />
<glyph unicode="&#xf102;" />
<glyph unicode="&#xf103;" />
<glyph unicode="&#xf104;" />
<glyph unicode="&#xf105;" />
<glyph unicode="&#xf106;" />
<glyph unicode="&#xf107;" />
<glyph unicode="&#xf108;" />
<glyph unicode="&#xf109;" />
<glyph unicode="&#xf10a;" />
<glyph unicode="&#xf10b;" />
<glyph unicode="&#xf10c;" />
<glyph unicode="&#xf10d;" />
<glyph unicode="&#xf10e;" />
<glyph unicode="&#xf110;" />
<glyph unicode="&#xf111;" />
<glyph unicode="&#xf112;" />
<glyph unicode="&#xf113;" />
<glyph unicode="&#xf114;" />
<glyph unicode="&#xf115;" />
<glyph unicode="&#xf116;" />
<glyph unicode="&#xf117;" />
<glyph unicode="&#xf118;" />
<glyph unicode="&#xf119;" />
<glyph unicode="&#xf11a;" />
<glyph unicode="&#xf11b;" />
<glyph unicode="&#xf11c;" />
<glyph unicode="&#xf11d;" />
<glyph unicode="&#xf11e;" />
<glyph unicode="&#xf120;" />
<glyph unicode="&#xf121;" />
<glyph unicode="&#xf122;" />
<glyph unicode="&#xf123;" />
<glyph unicode="&#xf124;" />
<glyph unicode="&#xf125;" />
<glyph unicode="&#xf126;" />
<glyph unicode="&#xf127;" />
<glyph unicode="&#xf128;" />
<glyph unicode="&#xf129;" />
<glyph unicode="&#xf12a;" />
<glyph unicode="&#xf12b;" />
<glyph unicode="&#xf12c;" />
<glyph unicode="&#xf12d;" />
<glyph unicode="&#xf12e;" />
<glyph unicode="&#xf130;" />
<glyph unicode="&#xf131;" />
<glyph unicode="&#xf132;" />
<glyph unicode="&#xf133;" />
<glyph unicode="&#xf134;" />
<glyph unicode="&#xf135;" />
<glyph unicode="&#xf136;" />
<glyph unicode="&#xf137;" />
<glyph unicode="&#xf138;" />
<glyph unicode="&#xf139;" />
<glyph unicode="&#xf13a;" />
<glyph unicode="&#xf13b;" />
<glyph unicode="&#xf13c;" />
<glyph unicode="&#xf13d;" />
<glyph unicode="&#xf13e;" />
<glyph unicode="&#xf140;" />
<glyph unicode="&#xf141;" />
<glyph unicode="&#xf142;" />
<glyph unicode="&#xf143;" />
<glyph unicode="&#xf144;" />
<glyph unicode="&#xf145;" />
<glyph unicode="&#xf146;" />
<glyph unicode="&#xf147;" />
<glyph unicode="&#xf148;" />
<glyph unicode="&#xf149;" />
<glyph unicode="&#xf14a;" />
<glyph unicode="&#xf14b;" />
<glyph unicode="&#xf14c;" />
<glyph unicode="&#xf14d;" />
<glyph unicode="&#xf14e;" />
<glyph unicode="&#xf150;" />
<glyph unicode="&#xf151;" />
<glyph unicode="&#xf152;" />
<glyph unicode="&#xf153;" />
<glyph unicode="&#xf154;" />
<glyph unicode="&#xf155;" />
<glyph unicode="&#xf156;" />
<glyph unicode="&#xf157;" />
<glyph unicode="&#xf158;" />
<glyph unicode="&#xf159;" />
<glyph unicode="&#xf15a;" />
<glyph unicode="&#xf15b;" />
<glyph unicode="&#xf15c;" />
<glyph unicode="&#xf15d;" />
<glyph unicode="&#xf15e;" />
<glyph unicode="&#xf160;" />
<glyph unicode="&#xf161;" />
<glyph unicode="&#xf162;" />
<glyph unicode="&#xf163;" />
<glyph unicode="&#xf164;" />
<glyph unicode="&#xf165;" />
<glyph unicode="&#xf166;" />
<glyph unicode="&#xf167;" />
<glyph unicode="&#xf168;" />
<glyph unicode="&#xf169;" />
<glyph unicode="&#xf16a;" />
<glyph unicode="&#xf16b;" />
<glyph unicode="&#xf16c;" />
<glyph unicode="&#xf16d;" />
<glyph unicode="&#xf16e;" />
<glyph unicode="&#xf170;" />
<glyph unicode="&#xf171;" />
<glyph unicode="&#xf172;" />
<glyph unicode="&#xf173;" />
<glyph unicode="&#xf174;" />
<glyph unicode="&#xf175;" />
<glyph unicode="&#xf176;" />
<glyph unicode="&#xf177;" />
<glyph unicode="&#xf178;" />
<glyph unicode="&#xf179;" />
<glyph unicode="&#xf17a;" />
<glyph unicode="&#xf17b;" />
<glyph unicode="&#xf17c;" />
<glyph unicode="&#xf17d;" />
<glyph unicode="&#xf17e;" />
<glyph unicode="&#xf180;" />
<glyph unicode="&#xf181;" />
<glyph unicode="&#xf182;" />
<glyph unicode="&#xf183;" />
<glyph unicode="&#xf184;" />
<glyph unicode="&#xf185;" />
<glyph unicode="&#xf186;" />
<glyph unicode="&#xf187;" />
<glyph unicode="&#xf188;" />
<glyph unicode="&#xf189;" />
<glyph unicode="&#xf18a;" />
<glyph unicode="&#xf18b;" />
<glyph unicode="&#xf18c;" />
<glyph unicode="&#xf18d;" />
<glyph unicode="&#xf18e;" />
<glyph unicode="&#xf190;" />
<glyph unicode="&#xf191;" />
<glyph unicode="&#xf192;" />
<glyph unicode="&#xf193;" />
<glyph unicode="&#xf194;" />
<glyph unicode="&#xf195;" />
<glyph unicode="&#xf196;" />
<glyph unicode="&#xf197;" />
<glyph unicode="&#xf198;" />
<glyph unicode="&#xf199;" />
<glyph unicode="&#xf19a;" />
<glyph unicode="&#xf19b;" />
<glyph unicode="&#xf19c;" />
<glyph unicode="&#xf19d;" />
<glyph unicode="&#xf19e;" />
<glyph unicode="&#xf1a0;" />
<glyph unicode="&#xf1a1;" />
<glyph unicode="&#xf1a2;" />
<glyph unicode="&#xf1a3;" />
<glyph unicode="&#xf1a4;" />
<glyph unicode="&#xf1a5;" />
<glyph unicode="&#xf1a6;" />
<glyph unicode="&#xf1a7;" />
<glyph unicode="&#xf1a8;" />
<glyph unicode="&#xf1a9;" />
<glyph unicode="&#xf1aa;" />
<glyph unicode="&#xf1ab;" />
<glyph unicode="&#xf1ac;" />
<glyph unicode="&#xf1ad;" />
<glyph unicode="&#xf1ae;" />
<glyph unicode="&#xf1b0;" />
<glyph unicode="&#xf1b1;" />
<glyph unicode="&#xf1b2;" />
<glyph unicode="&#xf1b3;" />
<glyph unicode="&#xf1b4;" />
<glyph unicode="&#xf1b5;" />
<glyph unicode="&#xf1b6;" />
<glyph unicode="&#xf1b7;" />
<glyph unicode="&#xf1b8;" />
<glyph unicode="&#xf1b9;" />
<glyph unicode="&#xf1ba;" />
<glyph unicode="&#xf1bb;" />
<glyph unicode="&#xf1bc;" />
<glyph unicode="&#xf1bd;" />
<glyph unicode="&#xf1be;" />
<glyph unicode="&#xf1c0;" />
<glyph unicode="&#xf1c1;" />
<glyph unicode="&#xf1c2;" />
<glyph unicode="&#xf1c3;" />
<glyph unicode="&#xf1c4;" />
<glyph unicode="&#xf1c5;" />
<glyph unicode="&#xf1c6;" />
<glyph unicode="&#xf1c7;" />
<glyph unicode="&#xf1c8;" />
<glyph unicode="&#xf1c9;" />
<glyph unicode="&#xf1ca;" />
<glyph unicode="&#xf1cb;" />
<glyph unicode="&#xf1cc;" />
<glyph unicode="&#xf1cd;" />
<glyph unicode="&#xf1ce;" />
<glyph unicode="&#xf1d0;" />
<glyph unicode="&#xf1d1;" />
<glyph unicode="&#xf1d2;" />
<glyph unicode="&#xf1d3;" />
<glyph unicode="&#xf1d4;" />
<glyph unicode="&#xf1d5;" />
<glyph unicode="&#xf1d6;" />
<glyph unicode="&#xf1d7;" />
<glyph unicode="&#xf1d8;" />
<glyph unicode="&#xf1d9;" />
<glyph unicode="&#xf1da;" />
<glyph unicode="&#xf1db;" />
<glyph unicode="&#xf1dc;" />
<glyph unicode="&#xf1dd;" />
<glyph unicode="&#xf1de;" />
<glyph unicode="&#xf1e0;" />
<glyph unicode="&#xf1e1;" />
<glyph unicode="&#xf1e2;" />
<glyph unicode="&#xf1e3;" />
<glyph unicode="&#xf1e4;" />
<glyph unicode="&#xf1e5;" />
<glyph unicode="&#xf1e6;" />
<glyph unicode="&#xf1e7;" />
<glyph unicode="&#xf1e8;" />
<glyph unicode="&#xf1e9;" />
<glyph unicode="&#xf1ea;" />
<glyph unicode="&#xf1eb;" />
<glyph unicode="&#xf1ec;" />
<glyph unicode="&#xf1ed;" />
<glyph unicode="&#xf1ee;" />
<glyph unicode="&#xf1f0;" />
<glyph unicode="&#xf1f1;" />
<glyph unicode="&#xf1f2;" />
<glyph unicode="&#xf1f3;" />
<glyph unicode="&#xf1f4;" />
<glyph unicode="&#xf1f5;" />
<glyph unicode="&#xf1f6;" />
<glyph unicode="&#xf1f7;" />
<glyph unicode="&#xf1f8;" />
<glyph unicode="&#xf1f9;" />
<glyph unicode="&#xf1fa;" />
<glyph unicode="&#xf1fb;" />
<glyph unicode="&#xf1fc;" />
<glyph unicode="&#xf1fd;" />
<glyph unicode="&#xf1fe;" />
<glyph unicode="&#xf200;" />
<glyph unicode="&#xf201;" />
<glyph unicode="&#xf202;" />
<glyph unicode="&#xf203;" />
<glyph unicode="&#xf204;" />
<glyph unicode="&#xf205;" />
<glyph unicode="&#xf206;" />
<glyph unicode="&#xf207;" />
<glyph unicode="&#xf208;" />
<glyph unicode="&#xf209;" />
<glyph unicode="&#xf20a;" />
<glyph unicode="&#xf20b;" />
<glyph unicode="&#xf20c;" />
<glyph unicode="&#xf20d;" />
<glyph unicode="&#xf20e;" />
<glyph unicode="&#xf210;" />
<glyph unicode="&#xf211;" />
<glyph unicode="&#xf212;" />
<glyph unicode="&#xf213;" />
<glyph unicode="&#xf214;" />
<glyph unicode="&#xf215;" />
<glyph unicode="&#xf216;" />
<glyph unicode="&#xf217;" />
<glyph unicode="&#xf218;" />
<glyph unicode="&#xf219;" />
<glyph unicode="&#xf21a;" />
<glyph unicode="&#xf21b;" />
<glyph unicode="&#xf21c;" />
<glyph unicode="&#xf21d;" />
<glyph unicode="&#xf21e;" />
<glyph unicode="&#xf221;" />
<glyph unicode="&#xf222;" />
<glyph unicode="&#xf223;" />
<glyph unicode="&#xf224;" />
<glyph unicode="&#xf225;" />
<glyph unicode="&#xf226;" />
<glyph unicode="&#xf227;" />
<glyph unicode="&#xf228;" />
<glyph unicode="&#xf229;" />
<glyph unicode="&#xf22a;" />
<glyph unicode="&#xf22b;" />
<glyph unicode="&#xf22c;" />
<glyph unicode="&#xf22d;" />
<glyph unicode="&#xf22e;" />
<glyph unicode="&#xf22f;" />
<glyph unicode="&#xf230;" />
<glyph unicode="&#xf231;" />
<glyph unicode="&#xf232;" />
<glyph unicode="&#xf233;" />
<glyph unicode="&#xf234;" />
<glyph unicode="&#xf235;" />
<glyph unicode="&#xf236;" />
<glyph unicode="&#xf237;" />
<glyph unicode="&#xf238;" />
<glyph unicode="&#xf239;" />
<glyph unicode="&#xf23a;" />
<glyph unicode="&#xf23b;" />
<glyph unicode="&#xf23c;" />
<glyph unicode="&#xf23d;" />
<glyph unicode="&#xf23e;" />
<glyph unicode="&#xf500;" />
</font>
</defs>
</svg>
