<?xml version="1.0" standalone="no"?>
<!DOCTYPE svg PUBLIC "-//W3C//DTD SVG 1.1//EN" "http://www.w3.org/Graphics/SVG/1.1/DTD/svg11.dtd" >
<svg xmlns="http://www.w3.org/2000/svg" xmlns:xlink="http://www.w3.org/1999/xlink" version="1.1">
<metadata></metadata>
<defs>
<font id="black_tiebold" horiz-adv-x="1008" >
<font-face units-per-em="1008" ascent="1008" descent="0" />
<missing-glyph horiz-adv-x="252" />
<glyph unicode=" "  horiz-adv-x="252" />
<glyph unicode="&#x09;" horiz-adv-x="252" />
<glyph unicode="&#xa0;" horiz-adv-x="252" />
<glyph unicode="&#x25fc;" horiz-adv-x="500" d="M0 0z" />
<glyph unicode="&#xf000;" d="M1008 216v-144h-1008v144h1008zM1008 576v-144h-1008v144h1008zM1008 936v-144h-1008v144h1008z" />
<glyph unicode="&#xf001;" horiz-adv-x="1152" d="M144 216h864v325l-359 -209h-146l-359 209v-325zM576 456l432 252v84h-864v-84zM1152 936v-864h-1152v864h1152z" />
<glyph unicode="&#xf002;" d="M1008 102l-102 -102l-224 224q-112 -80 -250 -80q-179 0 -305.5 126.5t-126.5 305.5t126.5 305.5t305.5 126.5t305.5 -126.5t126.5 -305.5q0 -138 -80 -250zM432 288q119 0 203.5 84.5t84.5 203.5t-84.5 203.5t-203.5 84.5t-203.5 -84.5t-84.5 -203.5t84.5 -203.5 t203.5 -84.5z" />
<glyph unicode="&#xf003;" d="M784 326l224 -224l-102 -102l-224 224q-112 -80 -250 -80q-179 0 -305.5 126.5t-126.5 305.5t126.5 305.5t305.5 126.5t305.5 -126.5t126.5 -305.5q0 -138 -80 -250zM432 288q119 0 203.5 84.5t84.5 203.5t-84.5 203.5t-203.5 84.5t-203.5 -84.5t-84.5 -203.5 t84.5 -203.5t203.5 -84.5zM504 792v-144h144v-144h-144v-144h-144v144h-144v144h144v144h144z" />
<glyph unicode="&#xf004;" d="M784 326l224 -224l-102 -102l-224 224q-112 -80 -250 -80q-179 0 -305.5 126.5t-126.5 305.5t126.5 305.5t305.5 126.5t305.5 -126.5t126.5 -305.5q0 -138 -80 -250zM432 288q119 0 203.5 84.5t84.5 203.5t-84.5 203.5t-203.5 84.5t-203.5 -84.5t-84.5 -203.5 t84.5 -203.5t203.5 -84.5zM216 504v144h432v-144h-432z" />
<glyph unicode="&#xf005;" d="M1008 374v-115l-151 -259h-235q-75 0 -184.5 68.5t-205 164.5t-164 205.5t-68.5 183.5v235l259 151h115l256 -378zM774 144l90 154l-206 142l-90 -103q-64 36 -129.5 101.5t-101.5 129.5l103 90l-142 206l-154 -90v-141q0 -51 57 -135.5t134.5 -162t162 -134.5t135.5 -57 h141z" />
<glyph unicode="&#xf006;" />
<glyph unicode="&#xf007;" d="M864 864h-720v-504h216v-192l192 192h312v504zM1008 1008v-792h-396l-216 -216h-180v216h-216v792h1008z" />
<glyph unicode="&#xf008;" d="M1008 1008v-792h-396l-216 -216h-180v216h-216v792h1008zM378 612q0 38 -26 64t-64 26t-64 -26t-26 -64t26 -64t64 -26t64 26t26 64zM594 612q0 38 -26 64t-64 26t-64 -26t-26 -64t26 -64t64 -26t64 26t26 64zM810 612q0 38 -26 64t-64 26t-64 -26t-26 -64t26 -64t64 -26 t64 26t26 64zM864 864h-720v-504h216v-192l192 192h312v504z" />
<glyph unicode="&#xf009;" d="M648 864h-504v-360h144v-144v-48l150 150l42 42h60h108v360zM792 1008v-648h-252l-216 -216h-180v216h-144v648h792zM864 648v-360h-288l-144 -144h324l144 -144h36v144h72v504h-144z" />
<glyph unicode="&#xf00a;" d="M288 144q0 -60 -42 -102t-102 -42t-102 42t-42 102t42 102t102 42t102 -42t42 -102zM666 0h-144q0 142 -70 262t-190 190t-262 70v144q180 0 333.5 -89.5t243 -243t89.5 -333.5zM1008 0h-144q0 175 -68.5 335t-184.5 276t-276 184.5t-335 68.5v144q205 0 391.5 -80 t321.5 -215t215 -321.5t80 -391.5z" />
<glyph unicode="&#xf00b;" />
<glyph unicode="&#xf00c;" d="M1008 900l-396 -396l396 -396l-108 -108l-396 396l-396 -396l-108 108l396 396l-396 396l108 108l396 -396l396 396z" />
<glyph unicode="&#xf00d;" d="M756 648l-144 -144l144 -144l-108 -108l-144 144l-144 -144l-108 108l144 144l-144 144l108 108l144 -144l144 144zM504 864q-149 0 -254.5 -105.5t-105.5 -254.5t105.5 -254.5t254.5 -105.5t254.5 105.5t105.5 254.5t-105.5 254.5t-254.5 105.5zM504 1008 q208 0 356 -148t148 -356t-148 -356t-356 -148t-356 148t-148 356t148 356t356 148z" />
<glyph unicode="&#xf00e;" d="M504 1008q208 0 356 -148t148 -356t-148 -356t-356 -148t-356 148t-148 356t148 356t356 148zM504 144q149 0 254.5 105.5t105.5 254.5t-105.5 254.5t-254.5 105.5t-254.5 -105.5t-105.5 -254.5t105.5 -254.5t254.5 -105.5zM432 504v252h144v-396h-324v144h180z" />
<glyph unicode="&#xf010;" horiz-adv-x="1152" d="M450 630h-234l180 -198l-72 -252l252 126l252 -126l-72 252l180 198h-234l-126 234zM576 144l-270 -144l-144 126l72 270l-198 216l72 162h252l144 234h144l144 -234h252l72 -162l-198 -216l72 -270l-144 -126z" />
<glyph unicode="&#xf011;" horiz-adv-x="720" d="M720 1008v-787l-414 -221l-144 126l72 270l-198 216l72 162h252l144 234h216zM324 180l252 126v558l-126 -234h-234l180 -198z" />
<glyph unicode="&#xf012;" horiz-adv-x="1152" d="M1044 936l108 -108l-756 -756l-396 396l108 108l288 -288z" />
<glyph unicode="&#xf013;" d="M684 702l108 -108l-342 -342l-234 234l108 108l126 -126zM864 504q0 148 -106 254t-254 106t-254 -106t-106 -254t106 -254t254 -106t254 106t106 254zM1008 504q0 -208 -148 -356t-356 -148t-356 148t-148 356t148 356t356 148t356 -148t148 -356z" />
<glyph unicode="&#xf014;" d="M702 738l108 -108l-378 -378l-234 234l108 108l126 -126zM144 144h720v720h-720v-720zM1008 1008v-1008h-1008v1008h1008z" />
<glyph unicode="&#xf015;" d="M126 126h180v180h-180v-180zM126 414h180v180h-180v-180zM414 126h180v180h-180v-180zM702 126h180v180h-180v-180zM414 414h180v180h-180v-180zM126 702h180v180h-180v-180zM702 414h180v180h-180v-180zM414 702h180v180h-180v-180zM702 702h180v180h-180v-180z M1008 1008v-1008h-1008v1008h1008z" />
<glyph unicode="&#xf016;" d="M0 1008h1008v-1008h-1008v1008zM144 864v-288h288v288h-288zM432 144v288h-288v-288h288zM864 144v288h-288v-288h288zM576 576h288v288h-288v-288z" />
<glyph unicode="&#xf017;" horiz-adv-x="1152" d="M820 1008q137 0 234.5 -97.5t97.5 -234.5q0 -133 -97 -235q-57 -59 -204.5 -209t-226.5 -232h-96q-79 82 -226.5 232t-204.5 209q-97 102 -97 235q0 137 97.5 234.5t234.5 97.5q144 0 244 -108q100 108 244 108zM576 157q54 55 181.5 185.5t195.5 200.5q55 58 55 133 q0 78 -55 133t-133 55q-27 0 -53.5 -9t-45 -20t-42 -33t-35.5 -36t-35.5 -43t-32.5 -39q-9 10 -32.5 39t-35.5 43t-35.5 36t-42 33t-45 20t-53.5 9q-78 0 -133 -55t-55 -133q0 -75 55 -133q68 -70 195.5 -200.5t181.5 -185.5z" />
<glyph unicode="&#xf018;" horiz-adv-x="720" d="M332 1008q24 0 46.5 -3t39.5 -5.5t36.5 -12t30.5 -13.5t30.5 -20t26 -20.5t27 -26t24.5 -26t27.5 -31t27.5 -31.5v-794l-24 -25h-96q-26 27 -187.5 190t-243.5 251q-96 105 -96 237q0 137 97 233.5t234 96.5zM332 864q-78 0 -133 -55t-55 -133q0 -75 55 -133 q50 -52 152.5 -155.5t152.5 -155.5v535q-45 50 -81 73.5t-91 23.5z" />
<glyph unicode="&#xf019;" d="M792 864h216v-864h-1008v864h216v144h144v-144h288v144h144v-144zM864 144v432h-720v-432h720z" />
<glyph unicode="&#xf01a;" d="M810 126q0 -52 -37 -89t-89 -37t-89 37t-37 89t37 89t89 37t89 -37t37 -89zM378 126q0 -52 -37 -89t-89 -37t-89 37t-37 89t37 89t89 37t89 -37t37 -89zM288 648v-216h427l127 216h-554zM1008 646l-211 -358h-653v576h-144v144h288v-216h720v-146z" />
<glyph unicode="&#xf01b;" d="M1008 576v-144h-432v-432h-144v432h-432v144h432v432h144v-432h432z" />
<glyph unicode="&#xf01c;" d="M504 1008q208 0 356 -148t148 -356t-148 -356t-356 -148t-356 148t-148 356t148 356t356 148zM504 144q149 0 254.5 105.5t105.5 254.5t-105.5 254.5t-254.5 105.5t-254.5 -105.5t-105.5 -254.5t105.5 -254.5t254.5 -105.5zM576 576h216v-144h-216v-216h-144v216h-216 v144h216v216h144v-216z" />
<glyph unicode="&#xf01d;" d="M432 216v216h-216v144h216v216h144v-216h216v-144h-216v-216h-144zM0 1008h1008v-1008h-1008v1008zM864 144v720h-720v-720h720z" />
<glyph unicode="&#xf01e;" d="M684 1008l324 -324v-360l-720 -324l-288 288l324 720h360zM864 417v207l-240 240h-207l-245 -544l23 -23l206 206q-5 20 -5 37q0 60 42 102t102 42t102 -42t42 -102t-42 -102t-102 -42q-17 0 -37 5l-206 -206l23 -23z" />
<glyph unicode="&#xf021;" d="M1008 576v-144h-1008v144h1008z" />
<glyph unicode="&#xf022;" d="M504 864q-149 0 -254.5 -105.5t-105.5 -254.5t105.5 -254.5t254.5 -105.5t254.5 105.5t105.5 254.5t-105.5 254.5t-254.5 105.5zM504 1008q208 0 356 -148t148 -356t-148 -356t-356 -148t-356 148t-148 356t148 356t356 148zM792 432v144h-576v-144h576z" />
<glyph unicode="&#xf023;" d="M792 432v144h-576v-144h576zM864 864h-720v-720h720v720zM1008 1008v-1008h-1008v1008h1008z" />
<glyph unicode="&#xf024;" d="M792 1008l216 -216v-108l-612 -612l-396 -72l72 396l612 612h108zM326 206l331 331l-120 120l-331 -331l-27 -147zM759 639l99 99l-120 120l-99 -99z" />
<glyph unicode="&#xf025;" d="M720 432h144v-432h-864v936h504v-144h-360v-648h576v288zM1008 828l-90 -90l-180 180l90 90h36l144 -144v-36zM882 702l-450 -450l-216 -36l36 216l450 450z" />
<glyph unicode="&#xf026;" d="M144 144h72v432h-72v-432zM864 394q0 37 -32 64q6 14 6 31q0 36 -28.5 61.5t-64.5 25.5h-187q5 10 20.5 39t21 41.5t14.5 36t12.5 44t3.5 44.5q0 32 -17 57.5t-47 25.5q-15 0 -22 -0.5t-18.5 -3.5t-16.5 -11t-5 -21q0 -27 -20 -73t-39.5 -78.5t-51.5 -81.5t-33 -51v-333 q47 -28 106.5 -47.5t109.5 -19.5h134q36 0 63.5 24t26.5 59v3q38 25 38 69q0 16 -6 31q32 25 32 64zM1008 394q0 -55 -26 -104q-3 -74 -49 -131q-23 -71 -85 -115t-138 -44h-134q-99 0 -216 50v-50h-360v720h299q6 10 22.5 37t24.5 41q12 22 14 34q7 46 11 58 q20 53 66.5 85.5t102.5 32.5q105 0 169.5 -60.5t64.5 -166.5q0 -35 -4 -62q85 -9 146.5 -72t65.5 -149q26 -49 26 -104z" />
<glyph unicode="&#xf027;" d="M1008 614q0 -55 -26 -104q-4 -86 -65.5 -149t-146.5 -72q4 -27 4 -62q0 -106 -64.5 -166.5t-169.5 -60.5q-56 0 -102.5 32.5t-66.5 85.5q-4 12 -11 58q-2 12 -14 34q-8 14 -24.5 41t-22.5 37h-299v720h360v-50q117 50 216 50h134q76 0 138 -44t85 -115q46 -57 49 -131 q26 -49 26 -104zM864 614q0 39 -32 64q6 15 6 31q0 44 -38 69v3q1 35 -26.5 59t-63.5 24h-134q-50 0 -109.5 -19.5t-106.5 -47.5v-333q1 -2 33 -51t51.5 -81.5t39.5 -78.5t20 -73q0 -13 5 -21t16.5 -11t18.5 -3.5t22 -0.5q30 0 47 25.5t17 57.5q0 24 -3.5 44.5t-12.5 44 t-14.5 36t-21 41.5t-20.5 39h187q36 0 64.5 25.5t28.5 61.5q0 17 -6 31q32 27 32 64zM216 864h-72v-432h72v432z" />
<glyph unicode="&#xf028;" d="M302 348l-64 -87q50 -55 117 -85l63 87q62 -11 86 -11t86 11l63 -87q67 30 117 85l-64 87q28 53 36.5 78t16.5 85l103 34q-9 73 -45 136l-102 -33q-42 44 -63.5 59.5t-75.5 41.5v108q-34 7 -72 7t-72 -7v-108q-54 -26 -75.5 -41.5t-63.5 -59.5l-102 33q-36 -63 -45 -136 l103 -34q8 -60 16.5 -85t36.5 -78zM599 6l-75 103h-40l-75 -103q-131 38 -202 90t-147 164l74 103l-12 38l-120 39l-2 64q-3 100 30.5 177.5t104.5 169.5l120 -39l33 24v126q126 46 216 46t216 -46v-126l33 -24l120 39q71 -92 104.5 -169.5t30.5 -177.5l-2 -64l-120 -39 l-12 -38l74 -103q-76 -112 -147 -164t-202 -90zM396 504q0 44 32 76t76 32t76 -32t32 -76t-32 -76t-76 -32t-76 32t-32 76z" />
<glyph unicode="&#xf029;" d="M775 720h144l-55 -720h-720l-55 720h144l44 -576h454zM468 216v504h-144v-504h144zM684 216v504h-144v-504h144zM342 792h-342v144h288l72 72h288l72 -72h288v-144h-342l-72 72h-180z" />
<glyph unicode="&#xf02a;" horiz-adv-x="864" d="M480 864h-336v-720h576v480zM540 1008l324 -324v-684h-864v1008h540z" />
<glyph unicode="&#xf02b;" d="M504 864q-148 0 -254 -106t-106 -254t106 -254t254 -106t254 106t106 254t-106 254t-254 106zM504 1008q208 0 356 -148t148 -356t-148 -356t-356 -148t-356 148t-148 356t148 356t356 148zM594 720q0 37 -26.5 63.5t-63.5 26.5t-63.5 -26.5t-26.5 -63.5t26.5 -63.5 t63.5 -26.5t63.5 26.5t26.5 63.5zM576 216v378h-144v-378h144z" />
<glyph unicode="&#xf02c;" d="M408 864h-240l-24 -24v-240l396 -396l264 264zM468 1008l540 -540l-468 -468l-540 540v360l108 108h360zM414 684q0 37 -26.5 63.5t-63.5 26.5t-63.5 -26.5t-26.5 -63.5t26.5 -63.5t63.5 -26.5t63.5 26.5t26.5 63.5z" />
<glyph unicode="&#xf02d;" d="M864 864q-47 0 -87 -5.5t-69.5 -11.5t-62.5 -24t-52 -29t-52.5 -41.5t-50 -46.5t-58.5 -58h-180l-108 -108v-180h180l36 -36v-180h180l108 108v180q104 103 133 141q66 86 79 204q4 39 4 87zM1008 1008v-144q0 -162 -49 -272t-167 -221v-179l-192 -192h-384v216h-216v384 l192 192h179q111 117 222 166.5t271 49.5h144zM792 720q0 30 -21 51t-51 21t-51 -21t-21 -51t21 -51t51 -21t51 21t21 51z" />
<glyph unicode="&#xf02e;" horiz-adv-x="864" d="M144 1008h720v-1008h-720q-60 0 -102 42t-42 102v720q0 60 42 102t102 42zM720 144v72h-540q-15 0 -25.5 -10.5t-10.5 -25.5t10.5 -25.5t25.5 -10.5h540zM720 360v504h-504v-504h504z" />
<glyph unicode="&#xf02f;" horiz-adv-x="1152" d="M792 936h360v-792h-348q-15 0 -31.5 -8.5t-24.5 -16t-25 -25.5t-21 -22h-252q-4 4 -21 22t-25 25.5t-24.5 16t-31.5 8.5h-348v792h360q133 0 216 -69q83 69 216 69zM504 216v504q0 26 -29 43.5t-59.5 23t-55.5 5.5h-216v-504h198q62 0 92.5 -13t69.5 -59zM1008 288v504 h-216q-25 0 -55.5 -5.5t-59.5 -23t-29 -43.5v-504q39 46 69.5 59t92.5 13h198z" />
<glyph unicode="&#xf030;" d="M144 1008h864v-1008h-864v144h-144v144h144v144h-144v144h144v144h-144v144h144v144zM864 144v720h-576v-720h576zM792 720v-144h-432v144h432z" />
<glyph unicode="&#xf031;" horiz-adv-x="1152" d="M666 504q0 38 -26 64t-64 26t-64 -26t-26 -64t26 -64t64 -26t64 26t26 64zM792 504q0 -89 -63.5 -152.5t-152.5 -63.5t-152.5 63.5t-63.5 152.5t63.5 152.5t152.5 63.5t152.5 -63.5t63.5 -152.5zM144 216h864v504h-168l-144 144h-240l-144 -144h-168v-504zM1152 864v-792 h-1152v792h252l144 144h360l144 -144h252z" />
<glyph unicode="&#xf032;" horiz-adv-x="1152" d="M540 792h-396v-576h864v432h-324zM600 936l144 -144h408v-720h-1152v864h600z" />
<glyph unicode="&#xf033;" />
<glyph unicode="&#xf034;" />
<glyph unicode="&#xf035;" />
<glyph unicode="&#xf036;" horiz-adv-x="1152" d="M144 144h360v360h-216v72q0 59 42.5 101.5t101.5 42.5v144q-119 0 -203.5 -84.5t-84.5 -203.5v-432zM648 144h360v360h-216v72q0 59 42.5 101.5t101.5 42.5v144q-119 0 -203.5 -84.5t-84.5 -203.5v-432zM1152 648v-648h-1152v576q0 178 127 305t305 127h144v-194 q60 91 155.5 142.5t204.5 51.5h144v-360h72z" />
<glyph unicode="&#xf037;" horiz-adv-x="1152" d="M504 432v432h-360v-360h216v-72q0 -59 -42.5 -101.5t-101.5 -42.5v-144q119 0 203.5 84.5t84.5 203.5zM1008 432v432h-360v-360h216v-72q0 -59 -42.5 -101.5t-101.5 -42.5v-144q119 0 203.5 84.5t84.5 203.5zM1152 1008v-576q0 -178 -127 -305t-305 -127h-144v194 q-60 -91 -155.5 -142.5t-204.5 -51.5h-144v360h-72v648h1152z" />
<glyph unicode="&#xf038;" horiz-adv-x="1152" d="M576 936q191 0 346.5 -119t229.5 -313q-74 -194 -229.5 -313t-346.5 -119t-346.5 119t-229.5 313q74 194 229.5 313t346.5 119zM576 216q129 0 241.5 77.5t177.5 210.5q-65 133 -177.5 210.5t-241.5 77.5t-241.5 -77.5t-177.5 -210.5q65 -133 177.5 -210.5t241.5 -77.5z M576 684q74 0 127 -53t53 -127t-53 -127t-127 -53t-127 53t-53 127t53 127t127 53z" />
<glyph unicode="&#xf039;" horiz-adv-x="864" d="M144 144h576v288h-576v-288zM288 576h288v162q0 52 -37 89t-89 37h-36q-52 0 -89 -37t-37 -89v-162zM864 576v-576h-864v576h144v162q0 112 79 191t191 79h36q112 0 191 -79t79 -191v-162h144z" />
<glyph unicode="&#xf03a;" horiz-adv-x="1152" d="M882 1008q112 0 191 -79t79 -191v-306h-144v144v162q0 52 -37 89t-89 37h-36q-52 0 -89 -37t-37 -89v-162h144v-144v-252v-180h-864v576h576v162q0 112 79 191t191 79h36zM720 144v288h-144h-432v-288h576z" />
<glyph unicode="&#xf03b;" d="M216 144h216v432h-288v-216h72v-216zM792 360h72v216h-288v-432h216v216zM286 720h144l-93 121q-18 23 -51 23q-29 0 -49.5 -21.5t-20.5 -50.5t20.5 -50.5t49.5 -21.5zM792 792q0 29 -20.5 50.5t-49.5 21.5q-33 0 -51 -23l-93 -121h144q29 0 49.5 21.5t20.5 50.5z M1008 720v-504h-72v-216h-864v216h-72v504h85q-13 33 -13 72q0 89 62.5 152.5t151.5 63.5q98 0 161 -74q11 -13 31 -39.5t26 -34.5q9 12 28 36.5t29 37.5q57 74 161 74q89 0 151.5 -63.5t62.5 -152.5q0 -39 -13 -72h85z" />
<glyph unicode="&#xf03c;" d="M504 1008q208 0 356 -148t148 -356t-148 -356t-356 -148t-356 148t-148 356t148 356t356 148zM504 144q149 0 254.5 105.5t105.5 254.5t-105.5 254.5t-254.5 105.5t-254.5 -105.5t-105.5 -254.5t105.5 -254.5t254.5 -105.5zM432 432v324h144v-324h-144z" />
<glyph unicode="&#xf03d;" d="M873 695q-37 -37 -89 -37t-89 37t-37 89t37 89t89 37t89 -37t37 -89t-37 -89zM288 720q-27 -26 -64.5 -26t-63.5 26q-26 27 -26 64.5t26 63.5t63.5 26t64.5 -26q26 -26 26 -63.5t-26 -64.5zM275 173q-21 -21 -51 -21t-51 21t-21 51t21 51t51 21t51 -21t21 -51t-21 -51z M835 173q-21 -21 -51 -21t-51 21t-21 51t21 51t51 21t51 -21t21 -51t-21 -51zM612 900q0 -45 -31.5 -76.5t-76.5 -31.5t-76.5 31.5t-31.5 76.5t31.5 76.5t76.5 31.5t76.5 -31.5t31.5 -76.5zM180 504q0 -30 -21 -51t-51 -21t-51 21t-21 51t21 51t51 21t51 -21t21 -51z M576 108q0 -30 -21 -51t-51 -21t-51 21t-21 51t21 51t51 21t51 -21t21 -51zM972 504q0 -30 -21 -51t-51 -21t-51 21t-21 51t21 51t51 21t51 -21t21 -51z" />
<glyph unicode="&#xf03e;" d="M221 144h52l319 320q29 -11 66 -11q55 0 104 28.5t76 76.5h-191l-52 90l52 90h201q-24 57 -76 91.5t-114 34.5q-85 0 -145 -60.5t-60 -145.5q0 -37 11 -66l-320 -319v-52zM658 1008q145 0 247.5 -102.5t102.5 -247.5t-103 -249t-247 -100h-17l-309 -309h-171l-161 161 v171l309 309q-7 149 96.5 258t252.5 109z" />
<glyph unicode="&#xf040;" horiz-adv-x="1152" d="M576 792q-72 0 -130 -44t-78 -113l-22 -80q-40 -10 -61 -16t-52.5 -20.5t-47.5 -31t-28.5 -44.5t-12.5 -65q0 -67 47.5 -114.5t114.5 -47.5h594q44 0 76 32t32 76q0 28 -11.5 49t-25.5 32.5t-42 20t-44 11t-50.5 6.5t-43.5 5q0 15 1 60.5t0 70.5q-3 89 -65 151t-151 62z M576 936q151 0 259 -106.5t101 -253.5v-3q93 -14 154.5 -84.5t61.5 -164.5q0 -104 -74 -178t-178 -74h-594q-127 0 -216.5 89.5t-89.5 216.5q0 104 64.5 187t165.5 109q33 116 129 189t217 73z" />
<glyph unicode="&#xf041;" horiz-adv-x="1152" d="M396 180l-108 108l288 288l288 -288l-108 -108l-108 108v-288h-144v288zM936 645q93 -14 154.5 -84.5t61.5 -164.5t-61.5 -164.5t-154.5 -84.5v147q32 11 52 39.5t20 62.5q0 24 -7 42.5t-22.5 31t-29 20.5t-39.5 13.5t-39.5 7.5t-42.5 5t-37 4q0 10 1.5 65t-0.5 66 q-5 91 -65.5 152t-150.5 61q-73 0 -130.5 -43.5t-77.5 -113.5l-22 -80q-39 -9 -60.5 -15.5t-53 -20.5t-47.5 -31t-28.5 -45t-12.5 -65q0 -41 19 -77t53 -58v-157q-96 29 -156 110t-60 182q0 104 64.5 187t165.5 109q33 116 129 189t217 73q151 0 259 -106.5t101 -253.5v-3z " />
<glyph unicode="&#xf042;" horiz-adv-x="1152" d="M756 396l108 -108l-288 -288l-288 288l108 108l108 -108v288h144v-288zM936 645q92 -13 154 -83.5t62 -165.5t-62 -165.5t-154 -83.5v147q32 11 52 39t20 63q0 40 -26.5 70.5t-66.5 36.5l-124 17l1 126v5q-2 89 -65 151t-151 62q-72 0 -130 -44t-78 -113l-22 -80l-80 -20 q-54 -14 -88 -58t-34 -99q0 -86 72 -135v-157q-95 29 -155.5 109.5t-60.5 182.5q0 106 65 188t165 108q33 115 128.5 188.5t217.5 73.5q149 0 254.5 -105.5t105.5 -254.5v-3z" />
<glyph unicode="&#xf043;" d="M504 144q148 0 254 106t106 254h144q0 -208 -148 -356t-356 -148q-102 0 -195.5 39.5t-164.5 112.5v-152h-144v396h396v-144h-148q105 -108 256 -108zM864 1008h144v-396h-396v144h149q-106 108 -257 108q-148 0 -254 -106t-106 -254h-144q0 208 148 356t356 148 q102 0 195.5 -39.5t164.5 -112.5v152z" />
<glyph unicode="&#xf044;" d="M594 288q0 -37 -26.5 -63.5t-63.5 -26.5t-63.5 26.5t-26.5 63.5t26.5 63.5t63.5 26.5t63.5 -26.5t26.5 -63.5zM720 613q0 -11 -1.5 -21t-2.5 -17.5t-5.5 -15.5t-6.5 -13t-9.5 -11.5t-10 -9.5t-12 -10t-12.5 -9t-15 -9.5t-15 -9.5q-8 -5 -13.5 -9t-10.5 -9.5t-7.5 -8.5 t-6.5 -10.5t-5 -9.5t-5.5 -12.5t-5.5 -13.5h-144q0 36 15 64.5t36 45.5t42 31.5t36 28.5t15 29q0 26 -22 40t-50 14q-31 0 -50 -23t-21 -55l-142 27q13 82 71 129.5t142 47.5q87 0 151.5 -48t64.5 -132zM864 504q0 148 -106 254t-254 106t-254 -106t-106 -254t106 -254 t254 -106t254 106t106 254zM1008 504q0 -208 -148 -356t-356 -148t-356 148t-148 356t148 356t356 148t356 -148t148 -356z" />
<glyph unicode="&#xf045;" d="M288 504q0 30 -21 51t-51 21t-51 -21t-21 -51t21 -51t51 -21t51 21t21 51zM864 216q0 30 -21 51t-51 21t-51 -21t-21 -51t21 -51t51 -21t51 21t21 51zM864 792q0 30 -21 51t-51 21t-51 -21t-21 -51t21 -51t51 -21t51 21t21 51zM1008 216q0 -89 -63.5 -152.5t-152.5 -63.5 t-152.5 63.5t-63.5 152.5q0 9 2 27l-212 106q-63 -61 -150 -61q-89 0 -152.5 63.5t-63.5 152.5t63.5 152.5t152.5 63.5q87 0 150 -61l212 106q-2 18 -2 27q0 89 63.5 152.5t152.5 63.5t152.5 -63.5t63.5 -152.5t-63.5 -152.5t-152.5 -63.5q-87 0 -150 61l-212 -106 q2 -18 2 -27t-2 -27l212 -106q63 61 150 61q89 0 152.5 -63.5t63.5 -152.5z" />
<glyph unicode="&#xf046;" horiz-adv-x="1152" d="M864 792h288v-792h-1152v792h288v144l72 72h432l72 -72v-144zM432 864v-72h288v72h-288zM1008 144v216h-288v-72h-288v72h-288v-216h864zM144 504h864v144h-864v-144z" />
<glyph unicode="&#xf047;" d="M504 1008q208 0 356 -148t148 -356t-148 -356t-356 -148t-356 148t-148 356t148 356t356 148zM504 144q149 0 254.5 105.5t105.5 254.5t-105.5 254.5t-254.5 105.5t-254.5 -105.5t-105.5 -254.5t105.5 -254.5t254.5 -105.5zM504 558q94 0 155 -39t61 -105 q0 -53 -39.5 -94.5t-104.5 -58.5v-63h-144v61q-111 23 -141 115l138 44q4 -12 25.5 -26t49.5 -14q26 0 47 11t21 25q0 17 -20 26.5t-48 9.5q-94 0 -155 39t-61 105q0 53 39.5 94.5t104.5 58.5v63h144v-61q111 -23 141 -115l-138 -44q-4 12 -25.5 26t-49.5 14 q-26 0 -47 -11.5t-21 -24.5q0 -14 21 -25t47 -11z" />
<glyph unicode="&#xf048;" horiz-adv-x="1152" d="M588 432l276 -207v630l-276 -207h-444v-216h444zM1134 540q0 -45 -31.5 -76.5t-76.5 -31.5q-6 0 -18 2v-362h-180l-288 216h-136l84 -216l-184 -72l-112 288h-120l-72 72v360l72 72h468l288 216h180v-362q12 2 18 2q45 0 76.5 -31.5t31.5 -76.5z" />
<glyph unicode="&#xf049;" d="M504 828l324 -324l-324 -324l-108 108l144 144h-540v144h540l-144 144zM1008 1008v-1008h-864v360h144v-216h576v720h-576v-216h-144v360h864z" />
<glyph unicode="&#xf04a;" horiz-adv-x="1152" d="M648 360v-360h-648v1008h648v-360h-144v216h-360v-720h360v216h144zM792 828l324 -324l-324 -324l-108 108l144 144h-540v144h540l-144 144z" />
<glyph unicode="&#xf04b;" horiz-adv-x="1152" d="M144 144h144v144h-144v-144zM144 432h144v144h-144v-144zM144 720h144v144h-144v-144zM432 216h288v576h-288v-576zM864 144h144v144h-144v-144zM864 432h144v144h-144v-144zM864 720h144v144h-144v-144zM1152 936v-864h-1152v864h1152z" />
<glyph unicode="&#xf04c;" horiz-adv-x="1152" d="M864 864h288v-360q0 -56 -37 -103.5t-91.5 -78t-123.5 -53.5t-127 -34t-107 -15v-76h234v-144h-648v144h234v76q-49 4 -107 15t-127 34t-123.5 53.5t-91.5 78t-37 103.5v360h288v144h576v-144zM288 407v313h-144v-212q0 -18 32 -41.5t60.5 -37t51.5 -22.5zM720 371v493 h-288v-493q69 -10 144 -10t144 10zM1008 508v212h-144v-313q42 15 93 45t51 56z" />
<glyph unicode="&#xf04d;" horiz-adv-x="1152" d="M756 684l108 108l288 -288l-288 -288l-108 108l180 180zM756 972l-216 -972l-144 36l216 972zM396 324l-108 -108l-288 288l288 288l108 -108l-180 -180z" />
<glyph unicode="&#xf04e;" horiz-adv-x="720" d="M576 648q0 89 -63.5 152.5t-152.5 63.5t-152.5 -63.5t-63.5 -152.5t63.5 -152.5t152.5 -63.5t152.5 63.5t63.5 152.5zM540 198v-126h-66q-16 -33 -46.5 -52.5t-67.5 -19.5t-67.5 19.5t-46.5 52.5h-66v126h360zM720 648q0 -97 -48.5 -180t-131.5 -131v-67h-360v67 q-83 48 -131.5 131t-48.5 180q0 148 106 254t254 106t254 -106t106 -254z" />
<glyph unicode="&#xf050;" d="M0 1008h1008v-648h-216v-180l-180 -180h-396v360h-216v648zM648 252v252h-288v-360h180zM864 504v360h-720v-360h72v144h576v-144h72zM288 684q-30 0 -51 21t-21 51t21 51t51 21t51 -21t21 -51t-21 -51t-51 -21z" />
<glyph unicode="&#xf051;" d="M1008 0h-1008v648h216v360h396l180 -180v-180h216v-648zM648 504v252l-108 108h-180v-360h288zM864 144v360h-72v-144h-576v144h-72v-360h720zM288 324q-30 0 -51 -21t-21 -51t21 -51t51 -21t51 21t21 51t-21 51t-51 21z" />
<glyph unicode="&#xf052;" horiz-adv-x="1152" d="M144 216h576v576h-576v-576zM738 504l270 -270v540zM1152 936v-864h-180l-108 108v-108h-864v864h864v-108l108 108h180z" />
<glyph unicode="&#xf053;" d="M144 144v-144h-144v144h144zM432 288v-288h-144v288h144zM720 576v-576h-144v576h144zM1008 1008v-1008h-144v1008h144z" />
<glyph unicode="&#xf054;" d="M936 288h72v-288h-288v288h108v180h-270v-180h90v-288h-288v288h90v180h-270v-180h108v-288h-288v288h72v288h378v144h-90v288h288v-288h-90v-144h378v-288z" />
<glyph unicode="&#xf055;" d="M1008 360v-360h-1008v360h144v-216h720v216h144zM504 972l324 -324l-108 -108l-144 144v-468h-144v468l-144 -144l-108 108z" />
<glyph unicode="&#xf056;" horiz-adv-x="1152" d="M1152 360v-360h-1152v360h144v-216h864v216h144zM792 612l108 -108l-324 -324l-324 324l108 108l144 -144v540h144v-540z" />
<glyph unicode="&#xf057;" d="M324 576q44 0 76 32t32 76t-32 76t-76 32t-76 -32t-32 -76t32 -76t76 -32zM378 864q-97 0 -165.5 -68.5t-68.5 -165.5t68.5 -165.5t165.5 -68.5q29 0 62 4t75 11.5t61 10.5v-134h144v-144h144v120l-264 264q12 79 12 102q0 97 -68.5 165.5t-165.5 68.5zM378 1008 q156 0 267 -111t111 -267q0 -29 -4 -50l256 -256v-324h-432v144h-144v112q-36 -4 -54 -4q-156 0 -267 111t-111 267t111 267t267 111z" />
<glyph unicode="&#xf058;" horiz-adv-x="1152" d="M864 864h288v-450q0 -48 -28.5 -91.5t-75 -73.5t-92 -50.5t-92.5 -33.5v-165h-864v1008h864v-144zM720 144v720h-576v-720h576zM1008 414v306h-144v-404q38 14 91 44.5t53 53.5z" />
<glyph unicode="&#xf059;" horiz-adv-x="864" d="M720 864h-576v-720l288 144l288 -144v720zM864 1008v-1008h-180l-252 126l-252 -126h-180v1008h864z" />
<glyph unicode="&#xf05a;" d="M576 379l288 36v351l-432 -72v151l-288 -36v-351l432 72v-151zM1008 936v-648l-576 -72v144l-288 -48v-312h-144v1008h144v-54l432 54v-144z" />
<glyph unicode="&#xf05b;" d="M792 360h144v-360h-936v936h360v-144h-216v-648h648v216zM504 1008h504v-504h-144v252l-468 -468l-108 108l468 468h-252v144z" />
<glyph unicode="&#xf05c;" d="M684 504h108q0 -119 -84.5 -203.5t-203.5 -84.5t-203.5 84.5t-84.5 203.5h108q0 -74 53 -127t127 -53t127 53t53 127zM468 648q0 -37 -26.5 -63.5t-63.5 -26.5t-63.5 26.5t-26.5 63.5t26.5 63.5t63.5 26.5t63.5 -26.5t26.5 -63.5zM720 648q0 -37 -26.5 -63.5t-63.5 -26.5 t-63.5 26.5t-26.5 63.5t26.5 63.5t63.5 26.5t63.5 -26.5t26.5 -63.5zM864 504q0 148 -106 254t-254 106t-254 -106t-106 -254t106 -254t254 -106t254 106t106 254zM1008 504q0 -208 -148 -356t-356 -148t-356 148t-148 356t148 356t356 148t356 -148t148 -356z" />
<glyph unicode="&#xf05d;" d="M504 864q-149 0 -254.5 -105.5t-105.5 -254.5t105.5 -254.5t254.5 -105.5t254.5 105.5t105.5 254.5t-105.5 254.5t-254.5 105.5zM504 1008q208 0 356 -148t148 -356t-148 -356t-356 -148t-356 148t-148 356t148 356t356 148zM468 648q0 38 -26 64t-64 26t-64 -26t-26 -64 t26 -64t64 -26t64 26t26 64zM720 648q0 38 -26 64t-64 26t-64 -26t-26 -64t26 -64t64 -26t64 26t26 64zM641 286l100 40q-29 73 -93.5 116.5t-143.5 43.5t-143.5 -43.5t-93.5 -116.5l100 -40q17 42 54.5 67t82.5 25t82.5 -25t54.5 -67z" />
<glyph unicode="&#xf05e;" d="M792 432v-108h-576v108h576zM468 648q0 -37 -26.5 -63.5t-63.5 -26.5t-63.5 26.5t-26.5 63.5t26.5 63.5t63.5 26.5t63.5 -26.5t26.5 -63.5zM720 648q0 -37 -26.5 -63.5t-63.5 -26.5t-63.5 26.5t-26.5 63.5t26.5 63.5t63.5 26.5t63.5 -26.5t26.5 -63.5zM864 504 q0 148 -106 254t-254 106t-254 -106t-106 -254t106 -254t254 -106t254 106t106 254zM1008 504q0 -208 -148 -356t-356 -148t-356 148t-148 356t148 356t356 148t356 -148t148 -356z" />
<glyph unicode="&#xf060;" d="M717 619l109 119h-138l-77 145l-74 -145h-138l108 -119l-46 -167l151 80l151 -80zM916 846l47 -118l-126 -138l51 -187l-91 -91l-185 97l-167 -88l-264 -313l-110 92l269 320l47 170l-126 138l47 118h163l82 162h113l86 -162h164z" />
<glyph unicode="&#xf061;" horiz-adv-x="864" d="M429 504l-105 -360h36l288 504h-342l54 216h-162l-36 -360h267zM864 756l-414 -756h-324l108 360h-234l72 648h486l-54 -216h360v-36z" />
<glyph unicode="&#xf062;" horiz-adv-x="1152" d="M666 252q0 -37 -26.5 -63.5t-63.5 -26.5t-63.5 26.5t-26.5 63.5t26.5 63.5t63.5 26.5t63.5 -26.5t26.5 -63.5zM504 684h144l-18 -306h-108zM972 144l7 11l-400 709h-3h-6l-398 -709l8 -11h792zM666 1008l486 -864l-108 -144h-936l-108 144l486 864h180z" />
<glyph unicode="&#xf063;" d="M594 288q0 -37 -26.5 -63.5t-63.5 -26.5t-63.5 26.5t-26.5 63.5t26.5 63.5t63.5 26.5t63.5 -26.5t26.5 -63.5zM432 792h144l-18 -378h-108zM864 504q0 148 -106 254t-254 106t-254 -106t-106 -254t106 -254t254 -106t254 106t106 254zM1008 504q0 -208 -148 -356 t-356 -148t-356 148t-148 356t148 356t356 148t356 -148t148 -356z" />
<glyph unicode="&#xf064;" d="M792 144l36 54l-252 360v306h-144v-306l-252 -360l36 -54h576zM720 612l288 -414l-126 -198h-756l-126 198l288 414v396h432v-396z" />
<glyph unicode="&#xf065;" horiz-adv-x="1152" d="M360 864l792 144v-720q0 -91 -73 -153.5t-179 -62.5t-179 62.5t-73 153.5t73 153.5t179 62.5q57 0 108 -20v336l-504 -92v-512q0 -91 -73 -153.5t-179 -62.5t-179 62.5t-73 153.5t73 153.5t179 62.5q57 0 108 -20v452zM252 144q45 0 76.5 21t31.5 51t-31.5 51t-76.5 21 t-76.5 -21t-31.5 -51t31.5 -51t76.5 -21zM900 216q45 0 76.5 21t31.5 51t-31.5 51t-76.5 21t-76.5 -21t-31.5 -51t31.5 -51t76.5 -21z" />
<glyph unicode="&#xf066;" d="M442 516q-41 23 -91 23q-31 0 -54 -8l234 -234q24 76 -15 145l204 204l54 -54l56 56l-182 182l-56 -56l54 -54zM648 1008l360 -360l-234 -234l-54 54l-45 -45q19 -83 -4 -165.5t-85 -141.5l-46 -44l-180 180l-180 -180l-180 -72l72 180l180 180l-180 180l44 46 q92 97 235 97q41 0 72 -8l45 45l-54 54z" />
<glyph unicode="&#xf067;" horiz-adv-x="864" d="M431 165q39 23 82.5 54.5t93 74t81.5 89.5t32 85v211l-471 -378q78 -73 182 -136zM159 413l561 451h-576v-396q0 -27 15 -55zM864 1008v-540q0 -57 -31 -117.5t-77.5 -111t-107 -99t-114 -82t-102.5 -58.5q-49 25 -102.5 58.5t-114 82t-107 99t-77.5 111t-31 117.5v540 h864z" />
<glyph unicode="&#xf068;" horiz-adv-x="864" d="M432 128l306 178h-612zM396 0l-396 252l54 180h756l54 -180l-396 -252h-72zM432 808l-306 -178h612zM468 936l396 -252l-54 -180h-756l-54 180l396 252h72z" />
<glyph unicode="&#xf069;" d="M1008 144v-144h-144v144q0 119 -95 203.5t-229 84.5h-216l324 -324l-108 -108l-504 504l504 504l108 -108l-324 -324h216q127 0 235 -58t170.5 -157.5t62.5 -216.5z" />
<glyph unicode="&#xf06a;" d="M36 0v144q0 117 62.5 216.5t170.5 157.5t235 58h216l-324 324l108 108l504 -504l-504 -504l-108 108l324 324h-216q-134 0 -229 -84.5t-95 -203.5v-144h-144z" />
<glyph unicode="&#xf06b;" horiz-adv-x="1152" d="M234 504l324 -396l-108 -108l-414 504l414 504l108 -108zM1152 216v-216h-144v216q0 89 -63.5 152.5t-152.5 63.5h-211l265 -324l-108 -108l-414 504l414 504l108 -108l-265 -324h211q149 0 254.5 -105.5t105.5 -254.5z" />
<glyph unicode="&#xf06c;" horiz-adv-x="1152" d="M360 576h211l-265 324l108 108l414 -504l-414 -504l-108 108l265 324h-211q-89 0 -152.5 -63.5t-63.5 -152.5v-216h-144v216q0 149 105.5 254.5t254.5 105.5zM918 504l-324 396l108 108l414 -504l-414 -504l-108 108z" />
<glyph unicode="&#xf06d;" d="M276 288h456q-12 34 -12 72v279q0 90 -60 157t-148 68h-8q-89 1 -152.5 -62.5t-63.5 -153.5v-288q0 -38 -12 -72zM1008 288v-144h-360q0 -59 -42.5 -101.5t-101.5 -42.5t-101.5 42.5t-42.5 101.5h-360v144q5 0 22 -0.5t24.5 0t23 1.5t23.5 3.5t19.5 8t17 13t10 19.5 t4.5 27v288q0 149 105.5 254.5t254.5 105.5q150 0 255 -109t105 -260v-279q0 -30 21 -51t51 -21h72z" />
<glyph unicode="&#xf06e;" horiz-adv-x="1152" d="M936 534v-174q0 -30 21 -51t51 -21h72v-144h-360q0 -59 -42.5 -101.5t-101.5 -42.5q-54 0 -94.5 35.5t-48.5 88.5l202 164h169q-12 34 -12 72v56zM360 430l395 334q-30 46 -77.5 73t-101.5 27q-89 0 -152.5 -63.5t-63.5 -152.5v-218zM1044 1008l108 -126l-1062 -864 l-90 108l72 61v101q5 0 22 -0.5t24.5 0t23 1.5t23.5 3.5t19.5 8t17 13t10 19.5t4.5 27v288q0 149 105.5 254.5t254.5 105.5q86 0 162.5 -40t127.5 -110z" />
<glyph unicode="&#xf070;" d="M504 1008q208 0 356 -148t148 -356t-148 -356t-356 -148t-356 148t-148 356t148 356t356 148zM504 864q-149 0 -254.5 -105.5t-105.5 -254.5q0 -108 60 -198l498 498q-90 60 -198 60zM504 144q149 0 254.5 105.5t105.5 254.5q0 108 -60 198l-498 -498q90 -60 198 -60z " />
<glyph unicode="&#xf071;" horiz-adv-x="864" d="M864 828v-648q0 -56 -49 -94.5t-126 -55.5t-138.5 -23.5t-118.5 -6.5t-118.5 6.5t-138.5 23.5t-126 55.5t-49 94.5v648q0 56 49 94.5t126 55.5t138.5 23.5t118.5 6.5t118.5 -6.5t138.5 -23.5t126 -55.5t49 -94.5zM720 195v132q-112 -39 -288 -39t-288 39v-132 q40 -27 128 -39t160 -12t160 12t128 39zM720 483v132q-112 -39 -288 -39t-288 39v-132q40 -27 128 -39t160 -12t160 12t128 39zM720 771v42q-40 27 -128 39t-160 12t-160 -12t-128 -39v-42q40 -27 128 -39t160 -12t160 12t128 39z" />
<glyph unicode="&#xf072;" horiz-adv-x="1152" d="M936 324q0 -30 -21 -51t-51 -21t-51 21t-21 51t21 51t51 21t51 -21t21 -51zM144 216h864v216h-864v-216zM197 576h758l-108 216h-542zM1152 504v-432h-1152v432l216 432h720z" />
<glyph unicode="&#xf073;" horiz-adv-x="1152" d="M936 720l216 -216l-216 -216l-72 18v126h-252l-360 -360h-252v144h180l288 288l-288 288h-180v144h252l360 -360h252v126z" />
<glyph unicode="&#xf074;" horiz-adv-x="1152" d="M864 414l72 18l216 -216l-216 -216l-72 18v126h-324l-288 288h-252v144h252l288 288h324v126l72 18l216 -216l-216 -216l-72 18v126h-252l-216 -216l216 -216h252v126z" />
<glyph unicode="&#xf075;" horiz-adv-x="1152" d="M576 648q111 0 210 -46t170 -127l-100 -105q-50 63 -123.5 98.5t-156.5 35.5t-156.5 -35.5t-123.5 -98.5l-100 105q71 81 170 127t210 46zM576 936q166 0 315.5 -67t260.5 -185l-98 -104q-90 99 -214.5 155.5t-263.5 56.5t-263.5 -56.5t-214.5 -155.5l-98 104 q111 118 260.5 185t315.5 67zM720 216q0 60 -42 102t-102 42t-102 -42t-42 -102t42 -102t102 -42t102 42t42 102z" />
<glyph unicode="&#xf076;" horiz-adv-x="1152" d="M892 327l71 426l-567 -284l168 -48l336 245l-174 -292zM0 432l1152 576l-144 -864l-358 102l-146 -246h-72v309z" />
<glyph unicode="&#xf077;" horiz-adv-x="1152" d="M144 216h864v216h-180l-72 -72h-360l-72 72h-180v-216zM756 576h198l-108 216h-540l-108 -216h198l72 -72h216zM1152 504v-432h-1152v432l216 432h720z" />
<glyph unicode="&#xf078;" horiz-adv-x="864" d="M500 798q-8 -38 -32.5 -70t-54.5 -54t-58.5 -44t-47.5 -51t-19 -63q0 -93 75 -163q8 38 33 70t54.5 54.5t58.5 44.5t48 51t19 63q0 94 -76 162zM528 248l-79 -104q-127 35 -216 140t-89 232q0 58 22 106.5t54 79t64 54.5t54 43t22 34q0 25 -24 70l79 105 q127 -34 216 -139t89 -233q0 -58 -22 -106.5t-54 -79t-64 -54.5t-54 -43t-22 -34q0 -23 24 -71zM864 144h-864v-144h864v144z" />
<glyph unicode="&#xf079;" horiz-adv-x="864" d="M144 819v-630l529 315zM108 1008l756 -450v-108l-756 -450l-108 72v864z" />
<glyph unicode="&#xf07a;" horiz-adv-x="576" d="M576 1008v-1008h-144v1008h144zM144 1008v-1008h-144v1008h144z" />
<glyph unicode="&#xf07b;" d="M504 864q-148 0 -254 -106t-106 -254t106 -254t254 -106t254 106t106 254t-106 254t-254 106zM504 1008q208 0 356 -148t148 -356t-148 -356t-356 -148t-356 148t-148 356t148 356t356 148zM396 756l360 -234v-36l-360 -234l-36 18v468z" />
<glyph unicode="&#xf07c;" horiz-adv-x="864" d="M720 1008h144v-1008h-144v450l-612 -450l-108 72v864l108 72l612 -450v450zM144 205l406 299l-406 299v-598z" />
<glyph unicode="&#xf07d;" horiz-adv-x="864" d="M314 504l406 -299v598zM0 1008h144v-450l612 450l108 -72v-864l-108 -72l-612 450v-450h-144v1008z" />
<glyph unicode="&#xf07e;" horiz-adv-x="1152" d="M792 1008l215 -215l1 -1l-216 -216l-72 18v126h-360q-89 0 -152.5 -63.5t-63.5 -152.5q0 -79 49 -137l-102 -102q-91 102 -91 239q0 149 105.5 254.5t254.5 105.5h360v126zM1061 743q91 -101 91 -239q0 -149 -105.5 -254.5t-254.5 -105.5h-360v-126l-72 -18l-216 216 l216 216l72 -18v-126h360q89 0 152.5 63.5t63.5 152.5q0 79 -49 137l100 100z" />
<glyph unicode="&#xf080;" horiz-adv-x="1152" d="M504 936l108 72l540 -450v-108l-540 -450l-108 72v258l-396 -330l-108 72v864l108 72l396 -330v258zM144 218l344 286l-344 286v-572zM648 790v-572l344 286z" />
<glyph unicode="&#xf081;" horiz-adv-x="1152" d="M504 218v572l-344 -286zM664 504l344 -286v572zM540 1008l108 -72v-258l396 330l108 -72v-864l-108 -72l-396 330v-258l-108 -72l-540 450v108z" />
<glyph unicode="&#xf082;" horiz-adv-x="576" d="M360 278v452l-103 -154h-113v-144h113zM504 936v-864h-180l-144 216h-180v432h180l144 216h180z" />
<glyph unicode="&#xf083;" horiz-adv-x="1152" d="M360 278v452l-103 -154h-113v-144h113zM504 936v-864h-180l-144 216h-180v432h180l144 216h180zM1044 792l108 -108l-180 -180l180 -180l-108 -108l-180 180l-180 -180l-108 108l180 180l-180 180l108 108l180 -180z" />
<glyph unicode="&#xf084;" horiz-adv-x="1152" d="M949 1005q98 -101 150.5 -231t52.5 -270q0 -139 -52.5 -269t-149.5 -231l-104 100q78 80 120 184t42 216q0 111 -42.5 215.5t-119.5 184.5zM794 854q68 -70 105 -161t37 -189t-37 -189t-104 -161l-104 100q101 106 101 250t-101 250zM639 704q81 -83 81 -200t-81 -200 l-103 100q40 43 40 100t-41 100zM360 278v452l-103 -154h-113v-144h113zM504 936v-864h-180l-144 216h-180v432h180l144 216h180z" />
<glyph unicode="&#xf085;" horiz-adv-x="720" d="M639 704q81 -83 81 -200q0 -116 -81 -200l-103 100q40 42 40 100q0 59 -41 100zM360 278v452l-103 -154h-113v-144h113zM504 936v-864h-180l-144 216h-180v432h180l144 216h180z" />
<glyph unicode="&#xf086;" horiz-adv-x="1152" d="M360 216v-144h-360v360h144v-216h216zM360 936v-144h-216v-216h-144v360h360zM1152 432v-360h-360v144h216v216h144zM1152 936v-360h-144v216h-216v144h360z" />
<glyph unicode="&#xf087;" horiz-adv-x="1152" d="M1152 576v144h-216v216h-144v-360h360zM0 1008h1152h-1152zM1152 288v144h-360v-360h144v216h216zM360 576v360h-144v-216h-216v-144h360zM360 72v360h-360v-144h216v-216h144z" />
<glyph unicode="&#xf088;" horiz-adv-x="1152" d="M1008 792h-864v-576h864v576zM1152 936v-864h-1152v864h1152zM464 473l116 -53q-21 -58 -68 -95t-107 -37q-84 0 -136.5 65t-52.5 151t52.5 151t136.5 65q60 0 107 -37t68 -95l-116 -53q-6 23 -21.5 41t-37.5 18q-29 0 -46 -29t-17 -61t17 -61t46 -29q22 0 37.5 18 t21.5 41zM824 473l116 -53q-21 -58 -68 -95t-107 -37q-84 0 -136.5 65t-52.5 151t52.5 151t136.5 65q60 0 107 -37t68 -95l-116 -53q-6 23 -21.5 41t-37.5 18q-29 0 -46 -29t-17 -61t17 -61t46 -29q22 0 37.5 18t21.5 41z" />
<glyph unicode="&#xf089;" horiz-adv-x="1152" d="M252 864l216 -216l-108 -108l-180 180h-180v144h252zM936 432l216 -216l-216 -216l-72 18v126h-108l-216 216l108 108l180 -180h36v126zM936 1008l216 -216l-216 -216l-72 18v126h-36l-576 -576h-252v144h180l576 576h108v126z" />
<glyph unicode="&#xf08a;" horiz-adv-x="1152" d="M990 144l-414 720l-414 -720h828zM666 1008l486 -864l-108 -144h-936l-108 144l486 864h180z" />
<glyph unicode="&#xf08b;" d="M144 144h720v720h-720v-720zM1008 1008v-1008h-1008v1008h1008z" />
<glyph unicode="&#xf08c;" d="M504 864q-148 0 -254 -106t-106 -254t106 -254t254 -106t254 106t106 254t-106 254t-254 106zM504 1008q208 0 356 -148t148 -356t-148 -356t-356 -148t-356 148t-148 356t148 356t356 148z" />
<glyph unicode="&#xf08d;" horiz-adv-x="1152" d="M780 864h-408l-206 -360l206 -360h408l206 360zM864 1008l288 -504l-288 -504h-576l-288 504l288 504h576z" />
<glyph unicode="&#xf08e;" d="M653 144l211 211v298l-211 211h-298l-211 -211v-298l211 -211h298zM1008 713v-418l-295 -295h-418l-295 295v418l295 295h418z" />
<glyph unicode="&#xf090;" d="M504 792l504 -468l-108 -108l-396 378l-396 -378l-108 108z" />
<glyph unicode="&#xf091;" d="M1008 684l-504 -468l-504 468l108 108l396 -378l396 378z" />
<glyph unicode="&#xf092;" horiz-adv-x="576" d="M468 0l-468 504l468 504l108 -108l-378 -396l378 -396z" />
<glyph unicode="&#xf093;" horiz-adv-x="576" d="M576 504l-468 -504l-108 108l378 396l-378 396l108 108z" />
<glyph unicode="&#xf094;" d="M504 576l504 -468l-108 -108l-396 378l-396 -378l-108 108zM504 1008l504 -468l-108 -108l-396 378l-396 -378l-108 108z" />
<glyph unicode="&#xf095;" d="M900 576l108 -108l-504 -468l-504 468l108 108l396 -378zM900 1008l108 -108l-504 -468l-504 468l108 108l396 -378z" />
<glyph unicode="&#xf096;" d="M198 504l378 -396l-108 -108l-468 504l468 504l108 -108zM630 504l378 -396l-108 -108l-468 504l468 504l108 -108z" />
<glyph unicode="&#xf097;" d="M1008 504l-468 -504l-108 108l378 396l-378 396l108 108zM576 504l-468 -504l-108 108l378 396l-378 396l108 108z" />
<glyph unicode="&#xf098;" d="M0 540l504 468l504 -468l-108 -108l-324 306v-738h-144v738l-324 -306z" />
<glyph unicode="&#xf099;" d="M504 0l-504 468l108 108l324 -306v738h144v-738l324 306l108 -108z" />
<glyph unicode="&#xf09a;" d="M0 504l468 504l108 -108l-306 -324h738v-144h-738l306 -324l-108 -108z" />
<glyph unicode="&#xf09b;" d="M540 1008l468 -504l-468 -504l-108 108l306 324h-738v144h738l-306 324z" />
<glyph unicode="&#xf09c;" d="M432 648v-648h-144v648h144zM144 288v-288h-144v288h144zM1008 1008v-1008h-144v1008h144zM720 432v-432h-144v432h144z" />
<glyph unicode="&#xf09d;" d="M720 432h-288v288q-119 0 -203.5 -84.5t-84.5 -203.5t84.5 -203.5t203.5 -84.5t203.5 84.5t84.5 203.5zM576 576h288q0 119 -84.5 203.5t-203.5 84.5v-288zM1008 576v-144h-144q0 -178 -127 -305t-305 -127t-305 127t-127 305t127 305t305 127v144h144q178 0 305 -127 t127 -305z" />
<glyph unicode="&#xf09e;" />
<glyph unicode="&#xf0a0;" d="M0 504q0 208 148 356t356 148t356 -148t148 -356t-148 -356t-356 -148t-356 148t-148 356zM864 504q0 149 -105.5 254.5t-254.5 105.5t-254.5 -105.5t-105.5 -254.5t105.5 -254.5t254.5 -105.5t254.5 105.5t105.5 254.5zM504 786l-285 -285l102 -102l111 111v-294h144 v294l111 -111l102 102z" />
<glyph unicode="&#xf0a1;" d="M1008 504q0 -208 -148 -356t-356 -148t-356 148t-148 356t148 356t356 148t356 -148t148 -356zM144 504q0 -149 105.5 -254.5t254.5 -105.5t254.5 105.5t105.5 254.5t-105.5 254.5t-254.5 105.5t-254.5 -105.5t-105.5 -254.5zM504 222l285 285l-102 102l-111 -111v294 h-144v-294l-111 111l-102 -102z" />
<glyph unicode="&#xf0a2;" d="M507 789l-285 -285l285 -285l102 102l-111 111h294v144h-294l111 111zM504 144q149 0 254.5 105.5t105.5 254.5t-105.5 254.5t-254.5 105.5t-254.5 -105.5t-105.5 -254.5t105.5 -254.5t254.5 -105.5zM504 1008q208 0 356 -148t148 -356t-148 -356t-356 -148t-356 148 t-148 356t148 356t356 148z" />
<glyph unicode="&#xf0a3;" d="M504 1008q208 0 356 -148t148 -356t-148 -356t-356 -148t-356 148t-148 356t148 356t356 148zM504 144q149 0 254.5 105.5t105.5 254.5t-105.5 254.5t-254.5 105.5t-254.5 -105.5t-105.5 -254.5t105.5 -254.5t254.5 -105.5zM786 504l-285 285l-102 -102l111 -111h-294 v-144h294l-111 -111l102 -102z" />
<glyph unicode="&#xf0a4;" horiz-adv-x="864" d="M432 585l-270 -243h540zM432 756l432 -396l-72 -144h-720l-72 144z" />
<glyph unicode="&#xf0a5;" horiz-adv-x="864" d="M432 351l270 243h-540zM792 720l72 -144l-432 -396l-432 396l72 144h720z" />
<glyph unicode="&#xf0a6;" horiz-adv-x="576" d="M207 504l243 -270v540zM576 864v-720l-144 -72l-396 432l396 432z" />
<glyph unicode="&#xf0a7;" horiz-adv-x="576" d="M126 234l243 270l-243 270v-540zM144 936l396 -432l-396 -432l-144 72v720z" />
<glyph unicode="&#xf0a8;" horiz-adv-x="432" d="M0 792l216 216l216 -216l-18 -72h-126v-720h-144v720h-126z" />
<glyph unicode="&#xf0a9;" horiz-adv-x="432" d="M216 0l-216 216l18 72h126v720h144v-720h126l18 -72z" />
<glyph unicode="&#xf0aa;" d="M0 504l216 216l72 -18v-126h720v-144h-720v-126l-72 -18z" />
<glyph unicode="&#xf0ab;" d="M792 720l216 -216l-216 -216l-72 18v126h-720v144h720v126z" />
<glyph unicode="&#xf0ac;" horiz-adv-x="864" d="M648 288q0 59 -42.5 101.5t-101.5 42.5h-360v-288h360q59 0 101.5 42.5t42.5 101.5zM612 720q0 59 -42.5 101.5t-101.5 42.5h-324v-288h324q59 0 101.5 42.5t42.5 101.5zM792 288q0 -119 -84.5 -203.5t-203.5 -84.5h-504v1008h468q119 0 203.5 -84.5t84.5 -203.5 q0 -136 -115 -207q70 -29 110.5 -87.5t40.5 -137.5z" />
<glyph unicode="&#xf0ad;" horiz-adv-x="864" d="M776 864h-136l-262 -720h138l-52 -144h-428l52 144h136l262 720h-138l52 144h428z" />
<glyph unicode="&#xf0ae;" horiz-adv-x="720" d="M720 144v-144h-720v144h720zM720 1008v-432q0 -148 -106 -254t-254 -106t-254 106t-106 254v432h144v-432q0 -89 63.5 -152.5t152.5 -63.5t152.5 63.5t63.5 152.5v432h144z" />
<glyph unicode="&#xf0b0;" d="M552 694q76 -35 122 -106.5t46 -155.5q0 -45 -12 -84.5t-40.5 -78t-48.5 -61t-65.5 -65.5t-61.5 -59q-86 -84 -204 -84q-119 0 -203.5 84.5t-84.5 203.5q0 25 4 48t8 40t17.5 38.5t18.5 32t26 33.5t26.5 29t32.5 32.5t32 31.5l102 -102q-7 -7 -32 -30t-35.5 -34.5 t-26.5 -32.5t-22.5 -42t-6.5 -44q0 -59 42.5 -101.5t101.5 -42.5q60 0 102 42l144 144q42 42 42 102q0 42 -23 78t-61 53zM720 1008q119 0 203.5 -84.5t84.5 -203.5q0 -25 -4 -48t-8 -40t-17.5 -38.5t-18.5 -32t-26 -33.5t-26.5 -29t-32.5 -32.5t-32 -31.5l-102 102 q9 9 32.5 30.5t35 34t26.5 33t22 41.5t7 44q0 60 -42.5 102t-101.5 42q-60 0 -102 -42l-144 -144q-42 -42 -42 -102q0 -42 23 -78t61 -53l-60 -131q-76 35 -122 106.5t-46 155.5q0 118 84 204q16 16 59 61.5t65.5 65.5t61 48.5t78 40.5t84.5 12z" />
<glyph unicode="&#xf0b1;" d="M219 321l329 329q52 52 127 52t127.5 -52.5t52.5 -127.5q0 -73 -52 -127l-311 -311q-86 -84 -204 -84q-119 0 -203.5 84.5t-84.5 203.5q0 118 84 204l432 432q86 84 204 84q119 0 203.5 -84t84.5 -203q0 -98 -59 -176l-104 104q19 32 19 71q0 59 -42.5 101.5t-101.5 42.5 q-60 0 -102 -42l-432 -432q-42 -42 -42 -102q0 -59 42.5 -101.5t101.5 -42.5q60 0 102 42l311 311q10 12 10 25q0 15 -10.5 25.5t-25.5 10.5t-25 -10l-329 -329z" />
<glyph unicode="&#xf0b2;" d="M648 288h-648v144h648v-144zM1008 0h-1008v144h1008v-144zM1008 576h-1008v144h1008v-144zM648 864h-648v144h648v-144z" />
<glyph unicode="&#xf0b3;" d="M792 288h-576v144h576v-144zM1008 0h-1008v144h1008v-144zM1008 576h-1008v144h1008v-144zM792 864h-576v144h576v-144z" />
<glyph unicode="&#xf0b4;" d="M1008 288h-648v144h648v-144zM1008 0h-1008v144h1008v-144zM1008 576h-1008v144h1008v-144zM1008 864h-648v144h648v-144z" />
<glyph unicode="&#xf0b5;" d="M1008 288h-1008v144h1008v-144zM1008 0h-1008v144h1008v-144zM1008 576h-1008v144h1008v-144zM1008 864h-1008v144h1008v-144z" />
<glyph unicode="&#xf0b6;" d="M1008 968l-441 -464l441 -464q-43 -41 -103 -39.5t-101 44.5l-336 354l-68 -71q32 -53 32 -112q0 -89 -63.5 -152.5t-152.5 -63.5t-152.5 63.5t-63.5 152.5t63.5 152.5t152.5 63.5q36 0 72 -13l81 85l-81 85q-36 -13 -72 -13q-89 0 -152.5 63.5t-63.5 152.5t63.5 152.5 t152.5 63.5t152.5 -63.5t63.5 -152.5q0 -59 -32 -112l68 -71l336 354q41 43 101 44.5t103 -39.5zM144 792q0 -30 21 -51t51 -21t51 21t21 51t-21 51t-51 21t-51 -21t-21 -51zM216 144q30 0 51 21t21 51t-21 51t-51 21t-51 -21t-21 -51t21 -51t51 -21z" />
<glyph unicode="&#xf0b7;" d="M216 1008h792v-792h-216v-216h-792v792h216v216zM648 144v72h-432v432h-72v-504h504zM864 360v504h-504v-504h504z" />
<glyph unicode="&#xf0b8;" horiz-adv-x="864" d="M432 648q-42 0 -80 19t-64 53h-144v-576h576v576h-144q-26 -34 -64 -53t-80 -19zM432 756q30 0 51 21t21 51t-21 51t-51 21t-51 -21t-21 -51t21 -51t51 -21zM432 1008q64 0 113.5 -41t62.5 -103h256v-864h-864v864h256q13 62 62.5 103t113.5 41z" />
<glyph unicode="&#xf0b9;" horiz-adv-x="1152" d="M1008 792h-864v-576h864v576zM1152 936v-864h-1152v864h1152zM936 648q0 30 -21 51t-51 21t-51 -21t-21 -51t21 -51t51 -21t51 21t21 51zM792 540l144 -144v-108h-720v180l216 216l252 -252z" />
<glyph unicode="&#xf0ba;" horiz-adv-x="1152" d="M0 936h1152v-864h-1152v864zM144 648v-144h360v144h-360zM144 216h360v144h-360v-144zM1008 216v144h-360v-144h360zM1008 504v144h-360v-144h360z" />
<glyph unicode="&#xf0bb;" d="M216 198q0 -45 -31.5 -76.5t-76.5 -31.5t-76.5 31.5t-31.5 76.5t31.5 76.5t76.5 31.5t76.5 -31.5t31.5 -76.5zM216 504q0 -45 -31.5 -76.5t-76.5 -31.5t-76.5 31.5t-31.5 76.5t31.5 76.5t76.5 31.5t76.5 -31.5t31.5 -76.5zM216 810q0 -45 -31.5 -76.5t-76.5 -31.5 t-76.5 31.5t-31.5 76.5t31.5 76.5t76.5 31.5t76.5 -31.5t31.5 -76.5zM1008 288v-144h-720v144h720zM1008 864v-144h-720v144h720zM1008 576v-144h-720v144h720z" />
<glyph unicode="&#xf0bc;" horiz-adv-x="1152" d="M270 1008v-468h-108v324l-67 -90l-82 72l142 162h115zM359 108v-108h-341v123q28 14 61.5 34.5t75.5 49.5t69.5 60.5t27.5 56.5q0 34 -20 53t-53 19q-57 0 -78 -55l-101 38q22 59 69.5 92t109.5 33q78 0 129.5 -51t51.5 -129q0 -104 -156 -216h155zM432 288v-144h720v144 h-720zM1152 864h-720v-144h720v144zM432 576v-144h720v144h-720z" />
<glyph unicode="&#xf0bd;" d="M1008 144v-144h-1008v144h1008zM72 756l216 -252l-216 -252l-72 36v432zM1008 432v-144h-576v144h576zM1008 720v-144h-576v144h576zM1008 1008v-144h-1008v144h1008z" />
<glyph unicode="&#xf0be;" d="M0 504l216 -252l72 36v432l-72 36zM1008 288h-576v144h576v-144zM1008 0h-1008v144h1008v-144zM1008 576h-576v144h576v-144zM1008 864h-1008v144h1008v-144z" />
<glyph unicode="&#xf0c0;" d="M504 1008q208 0 356 -148t148 -356t-148 -356t-356 -148q-135 0 -252.5 68.5t-184.5 185.5l125 72q48 -84 131.5 -133t180.5 -49q148 0 254 106t106 254t-106 254t-254 106q-151 0 -257 -108h149v-144h-396v396h144v-152q71 73 165 112.5t195 39.5z" />
<glyph unicode="&#xf0c1;" d="M504 1008q101 0 195 -39.5t165 -112.5v152h144v-396h-396v144h149q-106 108 -257 108q-148 0 -254 -106t-106 -254t106 -254t254 -106q97 0 180.5 49t131.5 133l125 -72q-67 -117 -184.5 -185.5t-252.5 -68.5q-208 0 -356 148t-148 356t148 356t356 148z" />
<glyph unicode="&#xf0c2;" d="M1008 540v-108h-360v96q39 36 87.5 83t106.5 114.5t58 92.5q0 32 -20 57t-52 25q-54 0 -94 -68l-92 57q71 119 186 119q77 0 128.5 -56.5t51.5 -134.5q0 -84 -190 -277h190zM648 648h-177l-147 -202l-147 202h-177l235 -324l-235 -324h177l147 202l147 -202h177l-235 324 z" />
<glyph unicode="&#xf0c3;" d="M471 1008h177l-235 -324l235 -324h-177l-147 202l-147 -202h-177l235 324l-235 324h177l147 -202zM1008 0v108h-190q190 193 190 277q0 78 -51.5 134.5t-128.5 56.5q-115 0 -186 -119l92 -57q40 68 94 68q32 0 52 -25t20 -57q0 -25 -58 -92.5t-106.5 -114.5t-87.5 -83 v-96h360z" />
<glyph unicode="&#xf0c4;" horiz-adv-x="1152" d="M360 72h-144v432h-216v144h576v-144h-216v-432zM864 72h-144v720h-288v144h720v-144h-288v-720z" />
<glyph unicode="&#xf0c5;" d="M1008 0v144h-1008v-144h1008zM225 216h-158l354 792h166l354 -792h-158l-64 144h-430zM504 840l-150 -336h300z" />
<glyph unicode="&#xf0c6;" horiz-adv-x="1152" d="M0 144l52 144h558l-52 -144h-558zM241 360l183 504h-247l52 144h648l-52 -144h-248l-183 -504h-153zM1152 396l-144 -144l144 -144l-108 -108l-144 144l-144 -144l-108 108l144 144l-144 144l108 108l144 -144l144 144z" />
<glyph unicode="&#xf0c7;" d="M504 144v164q-25 16 -48.5 41.5t-23.5 48.5q0 6 -0.5 18t-0.5 18q-77 0 -101 8t-72 57q-42 44 -42 102v118q-72 -95 -72 -215q0 -148 106 -254t254 -106zM864 504q0 107 -59 196.5t-157 133.5q0 -11 0.5 -33t0 -28t-2 -21t-4.5 -21t-9.5 -17.5t-15.5 -22t-23 -23.5v-72 q0 -22 -16 -38t-38 -16t-38 16t-16 38v54h-54q-30 0 -51 -21.5t-21 -50.5q0 -30 21 -51t51 -21h71q26 0 60 -6t70.5 -17.5t61.5 -34t25 -50.5q0 -54 -29 -100l-88 -140q115 33 188 129.5t73 216.5zM1008 504q0 -208 -148 -356t-356 -148t-356 148t-148 356t148 356t356 148 t356 -148t148 -356z" />
<glyph unicode="&#xf0c8;" horiz-adv-x="1152" d="M360 360q0 -30 -21 -51t-51 -21t-51 21t-21 51t21 51t51 21t51 -21t21 -51zM540 504q0 -30 -21 -51t-51 -21t-51 21t-21 51t21 51t51 21t51 -21t21 -51zM832 540l88 -88l-76 -76l-88 88l-88 -88l-76 76l88 88l-88 88l76 76l88 -88l88 88l76 -76zM749 297l259 -82v560 l-262 80l-346 -146l-256 93v-556l265 -92zM1152 882v-864l-396 126l-342 -144l-414 144v864l396 -144l342 144z" />
<glyph unicode="&#xf0c9;" d="M504 144l342 702l-702 -342h360v-360zM864 1008l144 -144l-414 -864h-234v360h-360v234z" />
<glyph unicode="&#xf0ca;" horiz-adv-x="864" d="M432 864q-104 0 -178 -74t-74 -178q0 -62 46 -145q40 -74 182 -323h48q169 300 182 323q46 83 46 145q0 104 -74 178t-178 74zM432 1008q164 0 280 -116t116 -280q0 -100 -64 -216l-224 -396h-216l-224 396q-64 116 -64 216q0 164 116 280t280 116zM540 612 q0 45 -31.5 76.5t-76.5 31.5t-76.5 -31.5t-31.5 -76.5t31.5 -76.5t76.5 -31.5t76.5 31.5t31.5 76.5z" />
<glyph unicode="&#xf0cb;" horiz-adv-x="720" d="M360 720q0 -30 -21 -51t-51 -21t-51 21t-21 51t21 51t51 21t51 -21t21 -51zM576 648q0 89 -63.5 152.5t-152.5 63.5t-152.5 -63.5t-63.5 -152.5t63.5 -152.5t152.5 -63.5t152.5 63.5t63.5 152.5zM720 648q0 -129 -82 -228t-206 -125v-295h-144v295q-124 26 -206 125 t-82 228q0 149 105.5 254.5t254.5 105.5t254.5 -105.5t105.5 -254.5z" />
<glyph unicode="&#xf0cc;" horiz-adv-x="1152" d="M648 144h216v449l-288 235l-288 -235v-449h216v216h144v-216zM1008 657l144 -117l-90 -108l-54 44v-476h-864v476l-54 -44l-90 108l576 468l288 -234v234h144v-351z" />
<glyph unicode="&#xf0cd;" horiz-adv-x="864" d="M0 0v1008h864v-1008h-864zM144 864v-720h216v144h144v-144h216v720h-576zM360 792v-144h-144v144h144zM648 792v-144h-144v144h144zM360 576v-144h-144v144h144zM648 576v-144h-144v144h144z" />
<glyph unicode="&#xf0ce;" d="M288 864h-144v-720h720v415l-288 -144v144l-288 -144v449zM432 1008v-360l288 144v-144l288 144v-792h-1008v1008h432z" />
<glyph unicode="&#xf0d0;" horiz-adv-x="1152" d="M1152 1008v-792h-367l13 -72h66v-144h-576v144h66l13 72h-367v792h1152zM652 144l-13 72h-126l-13 -72h152zM1008 360v504h-864v-504h864z" />
<glyph unicode="&#xf0d1;" horiz-adv-x="1152" d="M1008 936v-648h-864v648h864zM864 432v360h-576v-360h576zM0 216h1152v-144h-1152v144z" />
<glyph unicode="&#xf0d2;" horiz-adv-x="864" d="M0 1008h864v-1008h-864v1008zM432 54q22 0 38 16t16 38t-16 38t-38 16t-38 -16t-16 -38t16 -38t38 -16zM720 216v648h-576v-648h576z" />
<glyph unicode="&#xf0d3;" horiz-adv-x="576" d="M0 1008h576v-1008h-576v1008zM288 54q22 0 38 16t16 38t-16 38t-38 16t-38 -16t-16 -38t16 -38t38 -16zM432 216v648h-288v-648h288z" />
<glyph unicode="&#xf0d4;" horiz-adv-x="1152" d="M0 144v792h1152v-792h-288v-72h-576v72h-288zM144 792v-504h864v504h-864z" />
<glyph unicode="&#xf0d5;" d="M504 864q-149 0 -254.5 -105.5t-105.5 -254.5t105.5 -254.5t254.5 -105.5t254.5 105.5t105.5 254.5t-105.5 254.5t-254.5 105.5zM504 1008q208 0 356 -148t148 -356t-148 -356t-356 -148t-356 148t-148 356t148 356t356 148zM504 540q-15 0 -25.5 -10.5t-10.5 -25.5 t10.5 -25.5t25.5 -10.5t25.5 10.5t10.5 25.5t-10.5 25.5t-25.5 10.5zM504 684q74 0 127 -53t53 -127t-53 -127t-127 -53t-127 53t-53 127t53 127t127 53z" />
<glyph unicode="&#xf0d6;" d="M844 144l11 66l-261 101v137q62 42 94 87.5t32 112.5q0 89 -63.5 152.5t-152.5 63.5t-152.5 -63.5t-63.5 -152.5q0 -67 32 -112.5t94 -87.5v-137l-261 -101l11 -66h680zM764 399l244 -97l-42 -302h-924l-42 302l244 97q-100 105 -100 249q0 148 106 254t254 106t254 -106 t106 -254q0 -144 -100 -249z" />
<glyph unicode="&#xf0d7;" d="M844 144l11 65l-279 100v159q113 15 157 27q-12 16 -19.5 30t-10 30.5t-3 26.5t0.5 32.5t1 33.5q0 86 -56.5 151t-141.5 65t-141.5 -65t-56.5 -151q0 -8 1.5 -25t1.5 -26q0 -57 -34 -102q44 -12 157 -27v-159l-279 -100l11 -65h680zM822 374l186 -71l-42 -303h-924 l-42 303l186 71q-34 14 -55.5 29t-33.5 28.5t-17.5 39.5t-6.5 44.5t-1 60.5h34.5t25 -1.5t15.5 1t10.5 3t4 8t1.5 12.5t-1 21v28q0 145 99 252.5t243 107.5t243 -107.5t99 -252.5q0 -8 -1.5 -24t-1.5 -24q0 -12 6.5 -18.5t18.5 -8t23 -1t25 2t20 1.5v-72q0 -83 -114 -130z " />
<glyph unicode="&#xf0d8;" horiz-adv-x="1152" d="M1152 792q0 -38 -19.5 -71.5t-52.5 -53.5v-595h-1008v595q-33 20 -52.5 53.5t-19.5 71.5q0 59 42.5 101.5t101.5 42.5t101.5 -42.5t42.5 -101.5q0 -62 -45 -104l160 -175l111 149q-37 18 -59.5 53.5t-22.5 76.5q0 59 42.5 101.5t101.5 42.5t101.5 -42.5t42.5 -101.5 q0 -41 -22.5 -76.5t-59.5 -53.5l111 -149l160 175q-45 43 -45 104q0 59 42.5 101.5t101.5 42.5t101.5 -42.5t42.5 -101.5zM936 216v288l-198 -216l-162 216l-162 -216l-198 216v-288h720z" />
<glyph unicode="&#xf0d9;" horiz-adv-x="1152" d="M0 936h1152v-864h-1152v864zM1008 792h-864v-144h864v144zM144 216h864v288h-864v-288zM432 288v144h288v-144h-288zM216 288v144h144v-144h-144z" />
<glyph unicode="&#xf0da;" horiz-adv-x="1152" d="M648 360v-360h-144v360h144zM1152 576v-144h-1152v144h1152zM1008 1008v-144h-360v-216h-144v216h-360v144h864z" />
<glyph unicode="&#xf0db;" d="M187 432h634l-317 249zM1008 216v-144h-1008v144h1008zM504 864l504 -396l-54 -180h-900l-54 180z" />
<glyph unicode="&#xf0dc;" horiz-adv-x="1152" d="M180 540q-29 0 -50.5 -21.5t-21.5 -50.5t21.5 -50.5t50.5 -21.5t50.5 21.5t21.5 50.5t-21.5 50.5t-50.5 21.5zM180 648q74 0 127 -53t53 -127t-53 -127t-127 -53t-127 53t-53 127t53 127t127 53zM576 540q-29 0 -50.5 -21.5t-21.5 -50.5t21.5 -50.5t50.5 -21.5t50.5 21.5 t21.5 50.5t-21.5 50.5t-50.5 21.5zM576 648q74 0 127 -53t53 -127t-53 -127t-127 -53t-127 53t-53 127t53 127t127 53zM972 540q-29 0 -50.5 -21.5t-21.5 -50.5t21.5 -50.5t50.5 -21.5t50.5 21.5t21.5 50.5t-21.5 50.5t-50.5 21.5zM972 648q74 0 127 -53t53 -127t-53 -127 t-127 -53t-127 53t-53 127t53 127t127 53z" />
<glyph unicode="&#xf0dd;" horiz-adv-x="432" d="M216 900q-22 0 -38 -16t-16 -38t16 -38t38 -16t38 16t16 38t-16 38t-38 16zM216 1008q67 0 114.5 -47.5t47.5 -114.5t-47.5 -114.5t-114.5 -47.5t-114.5 47.5t-47.5 114.5t47.5 114.5t114.5 47.5zM216 558q-22 0 -38 -16t-16 -38t16 -38t38 -16t38 16t16 38t-16 38 t-38 16zM216 666q67 0 114.5 -47.5t47.5 -114.5t-47.5 -114.5t-114.5 -47.5t-114.5 47.5t-47.5 114.5t47.5 114.5t114.5 47.5zM216 216q-22 0 -38 -16t-16 -38t16 -38t38 -16t38 16t16 38t-16 38t-38 16zM216 324q67 0 114.5 -47.5t47.5 -114.5t-47.5 -114.5t-114.5 -47.5 t-114.5 47.5t-47.5 114.5t47.5 114.5t114.5 47.5z" />
<glyph unicode="&#xf0de;" />
<glyph unicode="&#xf0e0;" />
<glyph unicode="&#xf0e1;" />
<glyph unicode="&#xf0e2;" />
<glyph unicode="&#xf0e3;" />
<glyph unicode="&#xf0e4;" />
<glyph unicode="&#xf0e5;" />
<glyph unicode="&#xf0e6;" />
<glyph unicode="&#xf0e7;" />
<glyph unicode="&#xf0e8;" />
<glyph unicode="&#xf0e9;" />
<glyph unicode="&#xf0ea;" />
<glyph unicode="&#xf0eb;" />
<glyph unicode="&#xf0ec;" />
<glyph unicode="&#xf0ed;" />
<glyph unicode="&#xf0ee;" />
<glyph unicode="&#xf0f0;" />
<glyph unicode="&#xf0f1;" />
<glyph unicode="&#xf0f2;" />
<glyph unicode="&#xf0f3;" />
<glyph unicode="&#xf0f4;" />
<glyph unicode="&#xf0f5;" />
<glyph unicode="&#xf0f6;" />
<glyph unicode="&#xf0f7;" />
<glyph unicode="&#xf0f8;" />
<glyph unicode="&#xf0f9;" />
<glyph unicode="&#xf0fa;" />
<glyph unicode="&#xf0fb;" />
<glyph unicode="&#xf0fc;" />
<glyph unicode="&#xf0fd;" />
<glyph unicode="&#xf0fe;" />
<glyph unicode="&#xf100;" />
<glyph unicode="&#xf101;" />
<glyph unicode="&#xf102;" />
<glyph unicode="&#xf103;" />
<glyph unicode="&#xf104;" />
<glyph unicode="&#xf105;" />
<glyph unicode="&#xf106;" />
<glyph unicode="&#xf107;" />
<glyph unicode="&#xf108;" />
<glyph unicode="&#xf109;" />
<glyph unicode="&#xf10a;" />
<glyph unicode="&#xf10b;" />
<glyph unicode="&#xf10c;" />
<glyph unicode="&#xf10d;" />
<glyph unicode="&#xf10e;" />
<glyph unicode="&#xf110;" />
<glyph unicode="&#xf111;" />
<glyph unicode="&#xf112;" />
<glyph unicode="&#xf113;" />
<glyph unicode="&#xf114;" />
<glyph unicode="&#xf115;" />
<glyph unicode="&#xf116;" />
<glyph unicode="&#xf117;" />
<glyph unicode="&#xf118;" />
<glyph unicode="&#xf119;" />
<glyph unicode="&#xf11a;" />
<glyph unicode="&#xf11b;" />
<glyph unicode="&#xf11c;" />
<glyph unicode="&#xf11d;" />
<glyph unicode="&#xf11e;" />
<glyph unicode="&#xf120;" />
<glyph unicode="&#xf121;" />
<glyph unicode="&#xf122;" />
<glyph unicode="&#xf123;" />
<glyph unicode="&#xf124;" />
<glyph unicode="&#xf125;" />
<glyph unicode="&#xf126;" />
<glyph unicode="&#xf127;" />
<glyph unicode="&#xf128;" />
<glyph unicode="&#xf129;" />
<glyph unicode="&#xf12a;" />
<glyph unicode="&#xf12b;" />
<glyph unicode="&#xf12c;" />
<glyph unicode="&#xf12d;" />
<glyph unicode="&#xf12e;" />
<glyph unicode="&#xf130;" />
<glyph unicode="&#xf131;" />
<glyph unicode="&#xf132;" />
<glyph unicode="&#xf133;" />
<glyph unicode="&#xf134;" />
<glyph unicode="&#xf135;" />
<glyph unicode="&#xf136;" />
<glyph unicode="&#xf137;" />
<glyph unicode="&#xf138;" />
<glyph unicode="&#xf139;" />
<glyph unicode="&#xf13a;" />
<glyph unicode="&#xf13b;" />
<glyph unicode="&#xf13c;" />
<glyph unicode="&#xf13d;" />
<glyph unicode="&#xf13e;" />
<glyph unicode="&#xf140;" />
<glyph unicode="&#xf141;" />
<glyph unicode="&#xf142;" />
<glyph unicode="&#xf143;" />
<glyph unicode="&#xf144;" />
<glyph unicode="&#xf145;" />
<glyph unicode="&#xf146;" />
<glyph unicode="&#xf147;" />
<glyph unicode="&#xf148;" />
<glyph unicode="&#xf149;" />
<glyph unicode="&#xf14a;" />
<glyph unicode="&#xf14b;" />
<glyph unicode="&#xf14c;" />
<glyph unicode="&#xf14d;" />
<glyph unicode="&#xf14e;" />
<glyph unicode="&#xf150;" />
<glyph unicode="&#xf151;" />
<glyph unicode="&#xf152;" />
<glyph unicode="&#xf153;" />
<glyph unicode="&#xf154;" />
<glyph unicode="&#xf155;" />
<glyph unicode="&#xf156;" />
<glyph unicode="&#xf157;" />
<glyph unicode="&#xf158;" />
<glyph unicode="&#xf159;" />
<glyph unicode="&#xf15a;" />
<glyph unicode="&#xf15b;" />
<glyph unicode="&#xf15c;" />
<glyph unicode="&#xf15d;" />
<glyph unicode="&#xf15e;" />
<glyph unicode="&#xf160;" />
<glyph unicode="&#xf161;" />
<glyph unicode="&#xf162;" />
<glyph unicode="&#xf163;" />
<glyph unicode="&#xf164;" />
<glyph unicode="&#xf165;" />
<glyph unicode="&#xf166;" />
<glyph unicode="&#xf167;" />
<glyph unicode="&#xf168;" />
<glyph unicode="&#xf169;" />
<glyph unicode="&#xf16a;" />
<glyph unicode="&#xf16b;" />
<glyph unicode="&#xf16c;" />
<glyph unicode="&#xf16d;" />
<glyph unicode="&#xf16e;" />
<glyph unicode="&#xf170;" />
<glyph unicode="&#xf171;" />
<glyph unicode="&#xf172;" />
<glyph unicode="&#xf173;" />
<glyph unicode="&#xf174;" />
<glyph unicode="&#xf175;" />
<glyph unicode="&#xf176;" />
<glyph unicode="&#xf177;" />
<glyph unicode="&#xf178;" />
<glyph unicode="&#xf179;" />
<glyph unicode="&#xf17a;" />
<glyph unicode="&#xf17b;" />
<glyph unicode="&#xf17c;" />
<glyph unicode="&#xf17d;" />
<glyph unicode="&#xf17e;" />
<glyph unicode="&#xf180;" />
<glyph unicode="&#xf181;" />
<glyph unicode="&#xf182;" />
<glyph unicode="&#xf183;" />
<glyph unicode="&#xf184;" />
<glyph unicode="&#xf185;" />
<glyph unicode="&#xf186;" />
<glyph unicode="&#xf187;" />
<glyph unicode="&#xf188;" />
<glyph unicode="&#xf189;" />
<glyph unicode="&#xf18a;" />
<glyph unicode="&#xf18b;" />
<glyph unicode="&#xf18c;" />
<glyph unicode="&#xf18d;" />
<glyph unicode="&#xf18e;" />
<glyph unicode="&#xf190;" />
<glyph unicode="&#xf191;" />
<glyph unicode="&#xf192;" />
<glyph unicode="&#xf193;" />
<glyph unicode="&#xf194;" />
<glyph unicode="&#xf195;" />
<glyph unicode="&#xf196;" />
<glyph unicode="&#xf197;" />
<glyph unicode="&#xf198;" />
<glyph unicode="&#xf199;" />
<glyph unicode="&#xf19a;" />
<glyph unicode="&#xf19b;" />
<glyph unicode="&#xf19c;" />
<glyph unicode="&#xf19d;" />
<glyph unicode="&#xf19e;" />
</font>
</defs>
</svg>
