<?xml version="1.0" standalone="no"?>
<!DOCTYPE svg PUBLIC "-//W3C//DTD SVG 1.1//EN" "http://www.w3.org/Graphics/SVG/1.1/DTD/svg11.dtd" >
<svg xmlns="http://www.w3.org/2000/svg" xmlns:xlink="http://www.w3.org/1999/xlink" version="1.1">
<metadata></metadata>
<defs>
<font id="dosisextrabold" horiz-adv-x="1206" >
<font-face units-per-em="2048" ascent="1638" descent="-410" />
<missing-glyph horiz-adv-x="409" />
<glyph unicode="&#xfb01;" horiz-adv-x="1208" d="M94 96v963q0 203 147.5 338t391.5 135q141 0 252.5 -44t111.5 -110q0 -47 -29.5 -116.5t-80.5 -69.5q-16 0 -88 37t-166 37q-221 0 -221 -193v-98h188q37 0 57.5 -34t20.5 -79q0 -47 -20.5 -79.5t-57.5 -32.5h-188v-654q0 -41 -48.5 -68.5t-113.5 -27.5q-68 0 -112 26.5 t-44 69.5zM801 98v781q0 43 44 69.5t111 26.5q70 0 116 -26.5t46 -69.5v-781q0 -37 -48 -67.5t-113.5 -30.5t-110.5 29.5t-45 68.5z" />
<glyph unicode="&#xfb02;" horiz-adv-x="1232" d="M94 96v963q0 221 168 347t412 126q127 0 257 -33t191 -92v-1309q0 -37 -48 -67.5t-113.5 -30.5t-110.5 29.5t-45 68.5v1141q-51 29 -146 29q-100 0 -173.5 -50.5t-73.5 -144.5v-98h188q37 0 57.5 -34t20.5 -79q0 -47 -20.5 -79.5t-57.5 -32.5h-188v-654 q0 -41 -48.5 -68.5t-113.5 -27.5q-68 0 -112 26.5t-44 69.5z" />
<glyph horiz-adv-x="0" />
<glyph unicode="&#xd;" horiz-adv-x="681" />
<glyph horiz-adv-x="0" />
<glyph horiz-adv-x="0" />
<glyph unicode=" "  horiz-adv-x="409" />
<glyph unicode="&#x09;" horiz-adv-x="409" />
<glyph unicode="&#xa0;" horiz-adv-x="409" />
<glyph unicode="!" horiz-adv-x="468" d="M80 145q0 66 45 112t113 46q63 0 109 -47t46 -110.5t-46 -110.5t-109 -47q-66 0 -112 47t-46 110zM86 1372q0 57 42 91t108 34q63 0 105 -33.5t42 -91.5q0 -123 -14.5 -420t-14.5 -417q0 -43 -37.5 -67t-80.5 -24q-121 0 -121 91q0 121 -14.5 417.5t-14.5 419.5z" />
<glyph unicode="&#x22;" horiz-adv-x="645" d="M47 1497q0 33 33 54.5t78 21.5t78.5 -21.5t33.5 -54.5l-20 -274q0 -33 -23.5 -55.5t-68.5 -22.5t-67.5 22.5t-22.5 55.5zM375 1497q0 33 32.5 54.5t77.5 21.5t79 -21.5t34 -54.5l-20 -274q0 -33 -24 -55.5t-69 -22.5t-67.5 22.5t-22.5 55.5z" />
<glyph unicode="#" horiz-adv-x="1468" d="M43 538.5q0 51.5 24.5 86t63.5 34.5h188l43 222h-145q-39 0 -62.5 30.5t-23.5 83.5q0 51 24.5 86t63.5 35h191l53 279q6 29 45 47t88 18q61 0 102 -28.5t41 -88.5l-43 -227h211l54 279q6 29 44.5 47t88.5 18q59 0 101 -28.5t44 -88.5l-45 -227h143q35 0 61.5 -33.5 t26.5 -83.5q0 -51 -27.5 -84.5t-62.5 -33.5h-184l-45 -222h143q35 0 62.5 -34.5t27.5 -81.5q0 -51 -28.5 -85t-63.5 -34h-186l-57 -297q-6 -29 -44 -49.5t-79 -20.5q-57 0 -107.5 32t-50.5 85l47 250h-207l-57 -297q-6 -29 -45 -49.5t-78 -20.5q-57 0 -106.5 32t-49.5 85 l45 250h-143q-39 0 -62.5 31.5t-23.5 83zM608 659h209l43 222h-209z" />
<glyph unicode="$" horiz-adv-x="1107" d="M49 266q0 57 42 114.5t97 57.5q39 0 133.5 -66.5t174.5 -80.5v332q-74 29 -117 47t-106.5 56t-98.5 78t-61.5 102.5t-26.5 137.5q0 182 115.5 287t294.5 129v58q0 23 22.5 39t54.5 16q29 0 53.5 -17.5t24.5 -37.5v-52q57 -2 112.5 -10t117 -26.5t99.5 -55.5t38 -86 q0 -53 -34 -110.5t-93 -57.5q-29 0 -97.5 35t-142.5 41v-299q68 -27 115 -47.5t106.5 -59t95.5 -81.5t61.5 -108.5t25.5 -145.5q0 -186 -109.5 -301t-294.5 -146v-59q0 -20 -24.5 -37.5t-53.5 -17.5q-33 0 -55 16t-22 39v51q-182 6 -314.5 86t-132.5 180zM385 1075 q0 -74 131 -129v244q-131 -27 -131 -115zM631 293q125 29 125 129q0 86 -125 145v-274z" />
<glyph unicode="%" horiz-adv-x="1652" d="M49 930v291q0 143 83 209.5t224 66.5q139 0 223.5 -66.5t84.5 -209.5v-291q0 -143 -84 -210t-224 -67q-141 0 -224 67t-83 210zM256 930q0 -98 100 -99q102 0 103 99v291q0 98 -103 98q-100 0 -100 -98v-291zM362 14q0 18 11 39l719 1477q25 51 86 51q45 0 82.5 -30.5 t37.5 -77.5q0 -23 -8 -39l-721 -1477q-25 -51 -92 -51q-49 0 -82 33.5t-33 74.5zM989 270v291q0 143 83 210t224 67q139 0 223.5 -66.5t84.5 -210.5v-291q0 -143 -84 -209.5t-224 -66.5q-141 0 -224 66.5t-83 209.5zM1196 270q0 -98 100 -98q102 0 103 98v291q0 98 -103 98 q-100 0 -100 -98v-291z" />
<glyph unicode="&#x26;" horiz-adv-x="1341" d="M37 436q0 129 70.5 243t175.5 177q-133 147 -133 297q0 174 129 276.5t323 102.5q182 0 306 -83t124 -173q0 -55 -48 -101.5t-103 -46.5q-35 0 -66 24t-53.5 51.5t-63.5 51t-94 23.5q-70 0 -115 -37t-45 -102q0 -33 12.5 -67t43.5 -73l49 -61q16 -18 63 -66l52 -51 l294 -305q29 68 29 161t24.5 129t123.5 36q80 0 107.5 -36t27.5 -110q0 -188 -119 -377l156 -159q18 -20 18 -51q0 -47 -46 -88t-101 -41q-41 0 -78 36l-111 113q-180 -150 -420 -149q-236 0 -384 134t-148 322zM358 463q0 -92 64.5 -149.5t181.5 -57.5q123 0 199 66 l-342 350q-103 -88 -103 -209z" />
<glyph unicode="'" horiz-adv-x="317" d="M47 1497q0 33 33 54.5t78 21.5t78.5 -21.5t33.5 -54.5l-20 -274q0 -33 -23.5 -55.5t-68.5 -22.5t-67.5 22.5t-22.5 55.5z" />
<glyph unicode="(" horiz-adv-x="733" d="M88 354v795q0 186 144.5 305t314.5 119q158 0 158 -137q0 -63 -27 -101.5t-70 -38.5q-92 0 -146 -45t-54 -102v-795q0 -119 200 -118q96 0 97 -142q0 -68 -33 -101.5t-133 -33.5q-80 0 -156 22.5t-143.5 67.5t-109.5 124t-42 181z" />
<glyph unicode=")" horiz-adv-x="733" d="M29 94q0 141 96 142q201 0 201 118v795q0 57 -54.5 102t-146.5 45q-43 0 -69.5 38t-26.5 102q0 137 157 137q170 0 314.5 -119t144.5 -305v-795q0 -102 -42 -181t-109.5 -124t-143.5 -67.5t-155 -22.5q-100 0 -133 33.5t-33 101.5z" />
<glyph unicode="*" horiz-adv-x="1005" d="M45 1153q0 43 33 78t80 35q16 0 30 -6l215 -70l-10 209q2 47 33 72.5t78 25.5q45 0 75.5 -24.5t32.5 -73.5l-8 -213l217 74q14 6 31 6q45 0 75.5 -40t30.5 -87q0 -76 -69 -90l-209 -50l143 -206q16 -20 17 -60q0 -47 -39 -78.5t-86 -31.5q-53 0 -78 39l-133 204 l-135 -207q-23 -37 -72 -36q-43 0 -86 29.5t-43 76.5q0 37 25 66l135 192l-213 62q-70 14 -70 104z" />
<glyph unicode="+" horiz-adv-x="931" d="M41 492q0 55 26.5 93t69.5 38h199v196q0 39 39 69t92 30q55 0 92 -30t37 -69v-196h197q39 0 68.5 -39t29.5 -92q0 -55 -30 -92.5t-68 -37.5h-197v-198q0 -43 -36 -69.5t-93 -26.5q-55 0 -93 26.5t-38 69.5v198h-199q-43 0 -69.5 36.5t-26.5 93.5z" />
<glyph unicode="," horiz-adv-x="407" d="M47 145q0 66 46 112t109.5 46t110.5 -46t47 -110q0 -33 -127 -327q-16 -37 -61 -37q-37 0 -69.5 22.5t-32.5 57.5q0 16 8 33l51 110q-82 47 -82 139z" />
<glyph unicode="-" horiz-adv-x="851" d="M63 492q0 55 27 93t70 38h532q39 0 69 -39t30 -92q0 -55 -30 -92.5t-69 -37.5h-532q-43 0 -70 36.5t-27 93.5z" />
<glyph unicode="." horiz-adv-x="407" d="M47 145q0 66 45 112t113 46q63 0 109 -47t46 -110.5t-46 -110.5t-109 -47q-66 0 -112 47t-46 110z" />
<glyph unicode="/" horiz-adv-x="1005" d="M35 14q0 18 10 39l719 1477q25 51 86 51q45 0 83 -30.5t38 -77.5q0 -23 -8 -39l-721 -1477q-25 -51 -92 -51q-49 0 -82 33.5t-33 74.5z" />
<glyph unicode="0" horiz-adv-x="1165" d="M80 471v543q0 250 137 366.5t365 116.5q229 0 366 -116.5t137 -366.5v-543q0 -250 -137 -366.5t-366 -116.5q-227 0 -364.5 116.5t-137.5 366.5zM399 471q0 -205 183 -205q184 0 184 205v543q0 205 -184 205q-182 0 -183 -205v-543zM479 741q0 47 28 75t77 28 q47 0 74.5 -28t27.5 -75t-27.5 -75.5t-74.5 -28.5q-49 0 -77 28.5t-28 75.5z" />
<glyph unicode="1" horiz-adv-x="630" d="M-4 1214q0 74 59 109l271 164q23 14 59 14q53 0 97 -28.5t44 -71.5v-1303q0 -47 -47 -72.5t-112.5 -25.5t-112.5 25.5t-47 72.5v1043l-60 -37q-25 -16 -51 -17q-43 0 -71.5 39t-28.5 88z" />
<glyph unicode="2" horiz-adv-x="1058" d="M47 98v199q0 88 66.5 176t160.5 158l189 139q96 70 162.5 145.5t66.5 147.5q0 57 -39 101t-116 44q-68 0 -111 -36.5t-43 -116.5q0 -47 -46 -82t-122 -35q-143 0 -143 166q0 178 138 285.5t325 107.5q190 0 333.5 -114.5t143.5 -309.5q0 -123 -65.5 -231.5t-158 -182 t-185.5 -135t-158.5 -120t-65.5 -107.5v-18h536q39 0 68 -41t29 -96.5t-29 -98.5t-68 -43h-729q-47 0 -93 28.5t-46 69.5z" />
<glyph unicode="3" horiz-adv-x="1093" d="M33 375q0 68 32.5 92.5t118.5 24.5q96 0 130 -24t34 -83q0 -119 182 -119q104 0 146.5 42t42.5 143v38q0 96 -50.5 130t-146.5 34q-92 0 -92 123t92 123q35 0 58.5 5t49 20.5t39 53.5t13.5 97q0 147 -152 148q-78 0 -114.5 -23.5t-36.5 -81t-33 -87.5t-117 -30 q-106 0 -136 26t-30 103q0 143 114 255t353 112q457 0 457 -371q0 -117 -42 -209t-116 -126q209 -78 209 -302v-38q0 -238 -142 -350.5t-376 -112.5q-242 0 -364.5 118.5t-122.5 268.5z" />
<glyph unicode="4" horiz-adv-x="1075" d="M-10 426q0 31 16 61l473 928q43 82 133 82q49 0 104.5 -35t55.5 -86q0 -14 -10 -39l-363 -727h176v144q0 47 47.5 71.5t113 24.5t112.5 -24.5t47 -71.5v-144h88q47 0 72.5 -44t25.5 -103q0 -55 -30.5 -101.5t-67.5 -46.5h-88v-217q0 -47 -47 -72.5t-112.5 -25.5 t-113 25.5t-47.5 72.5v217h-479q-47 0 -76.5 30t-29.5 81z" />
<glyph unicode="5" horiz-adv-x="1067" d="M27 369q0 80 39.5 110.5t119.5 30.5q96 0 128 -30.5t32 -88.5q0 -59 50 -92t128 -33q186 0 187 193v39q0 100 -48.5 150t-134.5 50h-311q-68 0 -95.5 32t-27.5 93q0 14 4 60l56 516q10 98 57 98h653q43 0 67.5 -41t24.5 -98.5t-24.5 -98t-67.5 -40.5h-448l-21 -275h133 q229 0 365.5 -106.5t136.5 -339.5v-39q0 -242 -137 -356.5t-361 -114.5q-236 0 -370.5 112.5t-134.5 268.5z" />
<glyph unicode="6" horiz-adv-x="1150" d="M80 471v543q0 250 142.5 366.5t380 116.5t360 -118.5t122.5 -266.5q0 -72 -34.5 -100.5t-114.5 -28.5q-166 0 -166 117q0 55 -51 87t-127 32q-193 0 -193 -205v-185q82 90 256 91q195 0 312.5 -100.5t117.5 -330.5v-18q0 -250 -137 -366.5t-364 -116.5 q-229 0 -366.5 116.5t-137.5 366.5zM399 449q0 -203 185 -203q182 0 182 203v18q0 207 -184 207q-182 0 -183 -189v-36z" />
<glyph unicode="7" horiz-adv-x="1048" d="M25 1081v318q0 37 43 67.5t96 30.5h727q47 0 93 -30.5t46 -67.5v-256q0 -72 -65 -195l-480 -917q-23 -43 -90 -43q-78 0 -140 47t-62 115q0 27 14 53l504 872v144h-367v-138q0 -41 -49 -69.5t-113 -28.5q-66 0 -111.5 28.5t-45.5 69.5z" />
<glyph unicode="8" horiz-adv-x="1116" d="M55 410v24q0 299 254 385q-203 70 -203 314q0 184 122 274t331 90t331 -90t122 -274q0 -244 -203 -314q252 -86 252 -385v-24q0 -217 -137.5 -319.5t-364.5 -102.5t-365.5 102.5t-138.5 319.5zM375 449q0 -205 184 -205q182 0 182 205v45q0 195 -182 194 q-184 0 -184 -194v-45zM414 1092q0 -147 145.5 -147.5t145.5 147.5q0 150 -145.5 150t-145.5 -150z" />
<glyph unicode="9" horiz-adv-x="1153" d="M68 373q0 72 34.5 100.5t114.5 28.5q166 0 166 -117q0 -55 51 -87t127 -32q193 0 193 205v184q-82 -90 -256 -90q-195 0 -312.5 100.5t-117.5 329.5v19q0 250 137 366.5t364 116.5q229 0 366.5 -116.5t137.5 -366.5v-543q0 -250 -142.5 -366.5t-380 -116.5t-360 119 t-122.5 266zM387 1018q0 -207 184 -207q182 0 183 188v37q0 203 -185 203q-182 0 -182 -203v-18z" />
<glyph unicode=":" horiz-adv-x="460" d="M74 145q0 66 45 112t112 46q63 0 109.5 -47t46.5 -110.5t-46 -110.5t-110 -47q-66 0 -111.5 47t-45.5 110zM74 707q0 66 45 111.5t112 45.5q63 0 109.5 -47t46.5 -110.5t-46 -110.5t-110 -47q-66 0 -111.5 47.5t-45.5 110.5z" />
<glyph unicode=";" horiz-adv-x="460" d="M68 145q0 66 46 112t109.5 46t110.5 -46t47 -110q0 -33 -127 -327q-16 -37 -61 -37q-37 0 -70 22.5t-33 57.5q0 16 8 33l52 110q-82 47 -82 139zM80 707q0 66 45 111.5t113 45.5q63 0 109 -47t46 -110.5t-46 -110.5t-109 -47q-66 0 -112 47.5t-46 110.5z" />
<glyph unicode="&#x3c;" horiz-adv-x="874" d="M39 567.5q0 73.5 63 114.5l521 338q12 10 39 10q49 0 94 -45t45 -104q0 -57 -37 -80l-361 -234l361 -233q37 -23 37 -80q0 -59 -45 -104.5t-94 -45.5q-27 0 -39 11l-521 338q-63 41 -63 114.5z" />
<glyph unicode="=" horiz-adv-x="917" d="M96 276q0 55 27 93.5t70 38.5h532q39 0 68.5 -39t29.5 -93q0 -55 -29.5 -92t-68.5 -37h-532q-43 0 -70 36t-27 93zM96 692q0 55 27 93t70 38h532q39 0 68.5 -39t29.5 -92q0 -55 -29.5 -92t-68.5 -37h-532q-43 0 -70 36t-27 93z" />
<glyph unicode="&#x3e;" horiz-adv-x="874" d="M74 254q0 57 37 80l360 233l-360 234q-37 23 -37 80q0 59 45 104t94 45q27 0 39 -10l520 -338q63 -41 63.5 -114.5t-63.5 -114.5l-520 -338q-12 -10 -39 -11q-49 0 -94 45.5t-45 104.5z" />
<glyph unicode="?" horiz-adv-x="927" d="M41 1223q0 98 106.5 186t296.5 88q195 0 316 -96t121 -242q0 -197 -230 -375q-53 -43 -78.5 -85t-30.5 -73.5t-5 -97.5q0 -84 -121 -84q-63 0 -88 29t-25 109q0 193 137 311q6 6 53.5 43t66 55.5t41 56t22.5 76.5q0 68 -51.5 104t-133.5 36q-70 0 -114.5 -25t-59 -54.5 t-39 -54t-61.5 -24.5q-47 0 -85 31t-38 86zM262 145q0 66 46 112t110 46q66 0 111.5 -47t45.5 -110.5t-46 -110.5t-111.5 -47t-110.5 47t-45 110z" />
<glyph unicode="@" horiz-adv-x="1542" d="M72 422q0 336 185 546t538 210q328 0 514 -185.5t186 -500.5q0 -211 -84 -347.5t-242 -136.5q-90 0 -149 43t-72 113q-111 -150 -258 -150q-100 0 -178 62.5t-78 179.5q0 260 416 260h55v27q0 131 -151 131q-72 0 -133.5 -29t-69.5 -29q-29 0 -50.5 41t-21.5 76 q0 61 95.5 106.5t209.5 45.5q141 0 243.5 -74t102.5 -205v-350q8 -55 21.5 -75.5t36.5 -20.5q111 0 110 280q0 565 -501 566q-526 0 -527 -582q0 -545 465 -545q94 0 174 24.5t90 24.5q35 0 55.5 -30.5t20.5 -59.5q0 -66 -127 -98.5t-252 -32.5q-260 0 -442 186.5 t-182 528.5zM684 260q0 -84 70 -84q57 0 110.5 52.5t53.5 115.5v45h-37q-197 0 -197 -129z" />
<glyph unicode="A" d="M8 131q0 6 4 23l381 1249q16 51 74.5 78.5t134.5 27.5t134.5 -27.5t74.5 -78.5l383 -1249q4 -16 4 -23q0 -53 -66.5 -92t-138.5 -39q-88 0 -104 59l-70 256h-432l-70 -256q-16 -59 -104 -59q-72 0 -138.5 39t-66.5 92zM453 561h299l-150 549z" />
<glyph unicode="B" horiz-adv-x="1171" d="M111 96v1303q0 47 41 72.5t98 25.5h420q409 0 409 -362q0 -248 -174 -324q104 -39 157.5 -111.5t53.5 -216.5v-43q0 -229 -111.5 -334.5t-299.5 -105.5h-455q-63 0 -101 28.5t-38 67.5zM428 279h205q164 0 164 188v33q0 188 -164 188h-205v-409zM428 934h215q55 0 86 42 t31 99.5t-31 100.5t-86 43h-215v-285z" />
<glyph unicode="C" horiz-adv-x="1150" d="M94 471v543q0 250 136.5 366.5t355.5 116.5q225 0 369.5 -108.5t144.5 -298.5q0 -88 -37 -120t-123 -32q-154 0 -160 96q-6 184 -182 185q-184 0 -184 -205v-543q0 -205 186 -205q57 0 95 18.5t54.5 56.5t21.5 62.5t9 67.5q8 96 158 96q88 0 125 -31.5t37 -119.5 q0 -199 -144.5 -313.5t-369.5 -114.5q-219 0 -355.5 116.5t-136.5 366.5z" />
<glyph unicode="D" horiz-adv-x="1208" d="M111 96v1305q0 39 38.5 67.5t100.5 28.5h362q229 0 366.5 -116.5t137.5 -366.5v-531q0 -250 -137 -366.5t-367 -116.5h-362q-61 0 -100 28.5t-39 67.5zM430 279h182q184 0 185 204v531q0 205 -185 205h-182v-940z" />
<glyph unicode="E" horiz-adv-x="1103" d="M111 98v1301q0 47 41 72.5t98 25.5h729q47 0 71.5 -41t24.5 -96q0 -59 -25.5 -100t-70.5 -41h-549v-347h307q45 0 71 -36.5t26 -87.5q0 -47 -25 -84t-72 -37h-307v-348h549q45 0 70.5 -41t25.5 -101q0 -55 -24.5 -96t-71.5 -41h-729q-57 0 -98 25.5t-41 72.5z" />
<glyph unicode="F" horiz-adv-x="1054" d="M111 98v1301q0 47 41 72.5t98 25.5h711q47 0 71.5 -41t24.5 -96q0 -59 -25.5 -100t-70.5 -41h-531v-347h309q45 0 71 -36.5t26 -87.5q0 -47 -25 -84t-72 -37h-309v-529q0 -47 -47 -72.5t-112.5 -25.5t-112.5 25.5t-47 72.5z" />
<glyph unicode="G" horiz-adv-x="1173" d="M94 471v543q0 250 136.5 366.5t355.5 116.5q225 0 369.5 -108.5t144.5 -298.5q0 -88 -37 -120t-123 -32q-158 0 -160 96q0 29 -2 48.5t-12 48t-28.5 45t-54.5 30t-85 13.5q-184 0 -184 -205v-543q0 -205 182 -205q184 0 184 205v70h-121q-45 0 -70.5 35.5t-25.5 87.5 q0 47 26.5 84.5t69.5 37.5h345q45 0 70.5 -29.5t25.5 -70.5v-215q0 -250 -137.5 -366.5t-366.5 -116.5q-227 0 -364.5 116.5t-137.5 366.5z" />
<glyph unicode="H" horiz-adv-x="1267" d="M111 98v1303q0 47 47 71.5t112.5 24.5t112.5 -24.5t47 -71.5v-502h408v502q0 47 47 71.5t112.5 24.5t112.5 -24.5t47 -71.5v-1303q0 -47 -47 -72.5t-112.5 -25.5t-112.5 25.5t-47 72.5v555h-408v-555q0 -47 -47 -72.5t-112.5 -25.5t-112.5 25.5t-47 72.5z" />
<glyph unicode="I" horiz-adv-x="540" d="M111 98v1303q0 47 47 71.5t112.5 24.5t112.5 -24.5t47 -71.5v-1303q0 -47 -47 -72.5t-112.5 -25.5t-112.5 25.5t-47 72.5z" />
<glyph unicode="J" horiz-adv-x="1122" d="M12 416q0 88 37 119.5t125 31.5q150 0 158 -96q4 -43 9 -67.5t21.5 -62.5t54.5 -56.5t95 -18.5q186 0 186 205v748h-178q-45 0 -70.5 40.5t-25.5 100.5q0 55 24.5 96t71.5 41h359q57 0 98 -25.5t41 -72.5v-928q0 -250 -136.5 -366.5t-355.5 -116.5q-225 0 -369.5 114.5 t-144.5 313.5z" />
<glyph unicode="K" horiz-adv-x="1159" d="M111 98v1303q0 47 47 71.5t112.5 24.5t112.5 -24.5t47 -71.5v-492l383 543q31 45 84 45q63 0 125.5 -52t62.5 -112q0 -33 -20 -61l-336 -422l424 -649q16 -27 16 -54q0 -59 -61 -109t-131 -50q-74 0 -111 59l-350 533l-86 -111v-371q0 -47 -47 -72.5t-112.5 -25.5 t-112.5 25.5t-47 72.5z" />
<glyph unicode="L" horiz-adv-x="1007" d="M111 98v1303q0 47 47 71.5t112.5 24.5t112.5 -24.5t47 -71.5v-1122h467q43 0 67.5 -41t24.5 -98.5t-24.5 -98.5t-67.5 -41h-647q-57 0 -98 25.5t-41 72.5z" />
<glyph unicode="M" horiz-adv-x="1458" d="M111 98v1239q0 82 46 121t113 39q92 0 140.5 -27.5t107.5 -132.5l211 -368l211 368q59 104 107.5 132t140.5 28q68 0 114 -39t46 -121v-1239q0 -47 -47.5 -72.5t-113 -25.5t-112.5 25.5t-47 72.5v768l-197 -336q-35 -59 -106 -59q-70 0 -100 59l-195 357v-789 q0 -47 -47 -72.5t-112.5 -25.5t-112.5 25.5t-47 72.5z" />
<glyph unicode="N" horiz-adv-x="1267" d="M111 98v1301q0 47 47 72.5t112 25.5q92 0 136.5 -26.5t99.5 -133.5l332 -632v696q0 47 47 71.5t112.5 24.5t112.5 -24.5t47 -71.5v-1303q0 -47 -47 -72.5t-113 -25.5q-131 0 -178 86l-389 709v-697q0 -47 -47 -72.5t-112.5 -25.5t-112.5 25.5t-47 72.5z" />
<glyph unicode="O" horiz-adv-x="1193" d="M94 471v543q0 250 137.5 366.5t364.5 116.5q229 0 366.5 -116.5t137.5 -366.5v-543q0 -250 -137.5 -366.5t-366.5 -116.5q-227 0 -364.5 116.5t-137.5 366.5zM414 471q0 -205 182 -205q184 0 184 205v543q0 205 -184 205q-182 0 -182 -205v-543z" />
<glyph unicode="P" horiz-adv-x="1165" d="M111 98v1303q0 39 32.5 67.5t85.5 28.5h424q219 0 351.5 -113.5t132.5 -357.5v-10q0 -244 -138.5 -359.5t-365.5 -115.5h-203v-443q0 -47 -47 -72.5t-112.5 -25.5t-112.5 25.5t-47 72.5zM430 786h203q184 0 184 205v23q0 205 -184 205h-203v-433z" />
<glyph unicode="Q" horiz-adv-x="1193" d="M94 471v543q0 252 136.5 367.5t365.5 115.5t366.5 -115.5t137.5 -367.5v-543q0 -221 -109.5 -338t-296.5 -139v-119q0 -47 -29.5 -72.5t-68.5 -25.5t-68.5 25.5t-29.5 72.5v119q-186 23 -295 138.5t-109 338.5zM414 471q0 -137 84 -184v90q0 47 28.5 71.5t69.5 24.5 t69.5 -24.5t28.5 -71.5v-90q86 49 86 184v543q0 205 -184 205q-182 0 -182 -205v-543z" />
<glyph unicode="R" horiz-adv-x="1196" d="M111 98v1303q0 39 27.5 67.5t70.5 28.5h424q504 0 504 -438q0 -319 -248 -416l250 -453q10 -14 10 -36q0 -59 -64.5 -112.5t-136 -53.5t-102.5 59l-281 545h-135v-494q0 -47 -47 -72.5t-112.5 -25.5t-112.5 25.5t-47 72.5zM430 838h203q90 0 137 44t47 146t-47 146.5 t-137 44.5h-203v-381z" />
<glyph unicode="S" horiz-adv-x="1091" d="M39 246q0 57 42 114.5t97 57.5q31 0 69 -23.5t69.5 -52.5t89 -52.5t120.5 -23.5q80 0 139.5 34t59.5 101.5t-66.5 118.5t-162 93t-191.5 94.5t-162.5 148.5t-66.5 229q0 213 153.5 318.5t370.5 105.5q53 0 111.5 -6t131 -23.5t119 -56.5t46.5 -94q0 -53 -34 -110.5 t-93 -57.5q-25 0 -105 39t-176 39q-102 0 -153.5 -36t-51.5 -87q0 -47 48.5 -86t120 -66.5t156.5 -71.5t156.5 -96.5t119.5 -146.5t48 -215q0 -215 -141 -334.5t-371 -119.5q-199 0 -346 82t-147 184z" />
<glyph unicode="T" horiz-adv-x="1110" d="M16 1356q0 57 25 99t72 42h884q47 0 72 -42t25 -99q0 -61 -26 -103.5t-71 -42.5h-282v-1112q0 -47 -47 -72.5t-113 -25.5t-113 25.5t-47 72.5v1112h-282q-45 0 -71 42.5t-26 103.5z" />
<glyph unicode="U" horiz-adv-x="1241" d="M104 471v930q0 47 46.5 71.5t113.5 24.5q66 0 113 -24.5t47 -71.5v-930q0 -205 196.5 -205t196.5 205v930q0 47 46 71.5t114 24.5q66 0 113 -24.5t47 -71.5v-930q0 -250 -141.5 -366.5t-374.5 -116.5q-236 0 -376.5 116.5t-140.5 366.5z" />
<glyph unicode="V" d="M8 1366q0 53 66.5 92t138.5 39q88 0 104 -59l287 -1051l285 1051q16 59 104 59q72 0 138.5 -39t66.5 -92q0 -6 -4 -23l-381 -1249q-16 -51 -74.5 -78.5t-134.5 -27.5t-134 27.5t-75 78.5l-383 1249q-4 17 -4 23z" />
<glyph unicode="W" horiz-adv-x="1884" d="M6 1370q0 49 66.5 88t140.5 39q86 0 102 -59l312 -1051l161 692q8 39 53.5 61.5t100.5 22.5t100 -22.5t54 -61.5l161 -692l312 1051q16 59 102 59q74 0 140.5 -39t66.5 -88q0 -14 -4 -27l-408 -1249q-18 -51 -76.5 -78.5t-134 -27.5t-135 27.5t-71.5 78.5l-107 486 l-106 -486q-12 -51 -71.5 -78.5t-135.5 -27.5t-135.5 27.5t-75.5 78.5l-408 1249q-4 13 -4 27z" />
<glyph unicode="X" horiz-adv-x="1208" d="M16 145q0 27 19 58l354 547l-340 544q-20 33 -20 64q0 61 67.5 106t139.5 45q68 0 96 -53l272 -475l273 475q29 53 96 53q72 0 139.5 -45t67.5 -106q0 -31 -21 -64l-340 -544l355 -547q18 -31 18 -58q0 -61 -70.5 -109t-142.5 -48q-57 0 -76 32l-299 508l-299 -508 q-19 -32 -73 -32h-3q-72 0 -142.5 48t-70.5 109z" />
<glyph unicode="Y" horiz-adv-x="1208" d="M8 1366q0 53 73 92t144 39q37 0 55.5 -13.5t36.5 -45.5l287 -527l285 527q31 59 92 59q72 0 144.5 -39t72.5 -92q0 -14 -4 -23l-422 -702q-8 -12 -8 -29v-514q0 -47 -47 -72.5t-112.5 -25.5t-113 25.5t-47.5 72.5v514q0 16 -8 29l-424 702q-4 9 -4 23z" />
<glyph unicode="Z" horiz-adv-x="1097" d="M18 84q0 53 35 113l578 1022h-475q-45 0 -71 40.5t-26 98t25 98.5t72 41h790q92 0 92 -84q0 -49 -34 -113l-578 -1021h557q43 0 69.5 -43t26.5 -96.5t-26.5 -96.5t-69.5 -43h-872q-93 0 -93 84z" />
<glyph unicode="[" horiz-adv-x="727" d="M102 55v1420q0 47 41 72.5t99 25.5h360q47 0 71.5 -41t24.5 -96q0 -59 -25.5 -100.5t-70.5 -41.5h-180v-1058h180q45 0 70.5 -41t25.5 -101q0 -55 -24.5 -96t-71.5 -41h-360q-57 0 -98.5 25.5t-41.5 72.5z" />
<glyph unicode="\" horiz-adv-x="782" d="M37 1442q0 41 34.5 72.5t84.5 31.5q70 0 92 -61l491 -1348q4 -10 4 -28q0 -43 -34.5 -77t-79.5 -34q-70 0 -94 65l-492 1348q-6 15 -6 31z" />
<glyph unicode="]" horiz-adv-x="727" d="M29 94q0 59 25.5 100.5t70.5 41.5h180v1058h-180q-45 0 -70.5 41t-25.5 101q0 55 24.5 96t71.5 41h360q57 0 98.5 -25.5t41.5 -72.5v-1420q0 -47 -41 -72.5t-99 -25.5h-360q-47 0 -71.5 41t-24.5 96z" />
<glyph unicode="^" horiz-adv-x="598" d="M0 1260q0 61 51 90l213 114q20 10 34.5 10.5t35.5 -10.5l213 -114q51 -29 51 -90q0 -37 -18.5 -66t-44.5 -29q-10 0 -23 6l-213 115l-213 -115q-12 -6 -23 -6q-27 0 -45 29t-18 66z" />
<glyph unicode="_" horiz-adv-x="626" d="M-111 -131q0 55 27 93t70 38h655q39 0 68.5 -39t29.5 -92q0 -55 -29.5 -92t-68.5 -37h-655q-43 0 -70 36t-27 93z" />
<glyph unicode="`" horiz-adv-x="452" d="M0 1356q0 43 28.5 81t67.5 38q14 0 29 -7l287 -133q41 -20 41 -71q0 -43 -28 -81t-67 -38q-10 0 -30 8l-287 133q-41 21 -41 70z" />
<glyph unicode="a" horiz-adv-x="991" d="M37 252q0 170 124 239.5t355 69.5h74v21q0 61 -37 106t-117 45q-98 0 -161.5 -33.5t-77.5 -33.5q-49 0 -78 48t-29 109q0 68 113.5 116t236.5 48q236 0 351.5 -114.5t115.5 -286.5v-488q0 -41 -44 -69.5t-111 -28.5q-59 0 -100.5 28.5t-41.5 69.5v45q-140 -163 -309 -163 h-2q-113 0 -187.5 69.5t-74.5 202.5zM356 297q0 -86 80 -86q51 0 102.5 57.5t51.5 130.5v9h-8q-68 0 -112 -6.5t-79 -32t-35 -72.5z" />
<glyph unicode="b" horiz-adv-x="1091" d="M94 98v1338q0 43 44 69.5t112 26.5q70 0 116 -26.5t46 -69.5v-605q35 66 103.5 111t156.5 45q150 0 256 -127t106 -303v-143q0 -172 -107.5 -303t-248.5 -131q-94 0 -174 48t-113 115v-45q0 -37 -42 -67.5t-99 -30.5q-66 0 -111 29.5t-45 68.5zM412 387q0 -33 49 -82 t108.5 -49t103.5 48t44 110v143q0 59 -44 106.5t-106 47.5q-59 0 -107 -43t-48 -111v-170z" />
<glyph unicode="c" horiz-adv-x="905" d="M57 414v139q0 195 116 314.5t345 119.5q147 0 246.5 -50t99.5 -120q0 -51 -35.5 -103t-87.5 -52q-16 0 -74.5 24.5t-121.5 24.5q-170 0 -170 -158v-139q0 -158 172 -158q61 0 117.5 27.5t76.5 27.5q59 0 97.5 -49t38.5 -102q0 -72 -104.5 -126t-250.5 -54 q-233 0 -349 118.5t-116 315.5z" />
<glyph unicode="d" horiz-adv-x="1091" d="M57 414v143q0 176 106.5 303t256.5 127q88 0 156.5 -45t103.5 -111v605q0 43 46 69.5t116 26.5q68 0 111.5 -26.5t43.5 -69.5v-1338q0 -39 -45 -68.5t-110 -29.5q-57 0 -99.5 30.5t-42.5 67.5v45q-33 -68 -112.5 -115.5t-173.5 -47.5q-141 0 -249 131t-108 303zM375 414 q0 -61 44 -109.5t103.5 -48.5t108.5 49t49 82v170q0 68 -48 111t-108 43q-61 0 -105 -47.5t-44 -106.5v-143z" />
<glyph unicode="e" horiz-adv-x="1015" d="M55 414v149q0 174 138.5 299t332.5 125q182 0 311.5 -109.5t129.5 -279.5q0 -66 -16.5 -106.5t-49.5 -57t-60.5 -21.5t-72.5 -5h-395v-13q0 -76 57 -122t152 -46q72 0 150.5 38t105.5 38q51 0 83.5 -48t32.5 -91q0 -63 -109.5 -123.5t-271.5 -60.5q-229 0 -373.5 119.5 t-144.5 314.5zM373 586h254q43 0 43 49q0 57 -44 90t-106 33q-59 0 -103 -33t-44 -90v-49z" />
<glyph unicode="f" horiz-adv-x="724" d="M94 96v1024q0 176 105.5 294t255.5 118h147q57 0 88 -40t31 -93q0 -55 -31 -94t-88 -39h-78q-113 0 -112 -111v-180h231q37 0 57.5 -34t20.5 -79q0 -47 -20.5 -79.5t-57.5 -32.5h-231v-654q0 -41 -48.5 -68.5t-113.5 -27.5q-68 0 -112 26.5t-44 69.5z" />
<glyph unicode="g" horiz-adv-x="978" d="M25 -147q0 135 137 213q-74 43 -74 127q0 90 105 165q-133 98 -134 260v31q0 150 116 244t304 94q129 0 232 -49q35 84 61.5 113.5t54.5 29.5q53 0 87 -31.5t34 -62.5q0 -33 -33 -61l-41 -33q-31 -25 -47 -41q78 -84 78 -203v-31q0 -147 -119.5 -244.5t-306.5 -97.5 q-68 0 -123 13q-8 -14 -8 -27q0 -29 62.5 -43t151.5 -26.5t178 -36t151.5 -91t62.5 -176.5q0 -168 -135 -250.5t-327.5 -82.5t-329.5 80t-137 217zM324 -115q0 -59 48 -94t113.5 -35t113.5 35t48 90q0 35 -18.5 57.5t-56 36t-73.5 20.5t-93 13q-82 -43 -82 -123zM367 621 q0 -70 30.5 -115t85.5 -45q53 0 84 44t31 113v31q0 66 -30.5 110t-86.5 44q-53 0 -83.5 -44t-30.5 -110v-28z" />
<glyph unicode="h" horiz-adv-x="1095" d="M94 98v1338q0 43 44 69.5t114 26.5q66 0 113 -26.5t47 -69.5v-605q31 66 97 111t157 45q141 0 244.5 -127t103.5 -303v-459q0 -47 -47 -72.5t-113 -25.5q-61 0 -109.5 26.5t-48.5 71.5v459q0 59 -44 106.5t-103 47.5q-53 0 -95 -42t-42 -112v-459q0 -37 -48.5 -67.5 t-111.5 -30.5q-68 0 -113 29.5t-45 68.5z" />
<glyph unicode="i" horiz-adv-x="499" d="M82 1310.5q0 59.5 49 102.5t119 43q68 0 117 -43t49 -102.5t-49.5 -103.5t-116.5 -44q-70 0 -119 44t-49 103.5zM92 98v781q0 43 44 69.5t114 26.5q68 0 114 -26.5t46 -69.5v-781q0 -37 -47.5 -67.5t-112.5 -30.5q-68 0 -113 29.5t-45 68.5z" />
<glyph unicode="j" horiz-adv-x="501" d="M-82 -315q0 61 34 99t85 38q35 0 45 29.5t10 91.5v936q0 43 44 69.5t112 26.5q70 0 116 -26.5t46 -69.5v-936q0 -174 -86 -280.5t-240 -106.5q-166 0 -166 129zM82 1310.5q0 59.5 49 102.5t119 43q68 0 117 -43t49 -102.5t-49.5 -103.5t-116.5 -44q-70 0 -119 44 t-49 103.5z" />
<glyph unicode="k" horiz-adv-x="1042" d="M94 98v1338q0 43 44 69.5t112 26.5q70 0 116 -26.5t46 -69.5v-803l340 330q24 24 58 24h3q51 0 102.5 -50t51.5 -101q0 -31 -25 -56l-217 -200l281 -394q16 -27 16 -49q0 -53 -61.5 -105t-120.5 -52q-49 0 -76 38l-248 367l-104 -96v-191q0 -37 -48.5 -67.5t-114 -30.5 t-110.5 29.5t-45 68.5z" />
<glyph unicode="l" horiz-adv-x="538" d="M111 98v1338q0 43 44 69.5t113 26.5q68 0 114 -26.5t46 -69.5v-1338q0 -37 -47 -67.5t-113 -30.5q-68 0 -112.5 29.5t-44.5 68.5z" />
<glyph unicode="m" horiz-adv-x="1665" d="M92 98v781q0 43 44 69.5t114 26.5q57 0 98 -26.5t41 -69.5v-48q88 156 270 156q82 0 146.5 -56.5t95.5 -148.5q51 100 133 152.5t174 52.5q154 0 263.5 -116.5t109.5 -313.5v-459q0 -37 -47 -67.5t-113 -30.5q-61 0 -109 30.5t-48 67.5v459q0 74 -41 115t-97 41 q-53 0 -92 -41t-39 -115v-461q0 -47 -47 -71.5t-112 -24.5q-61 0 -109.5 24.5t-48.5 71.5v459q0 72 -42 114t-97 42q-53 0 -91 -40t-38 -114v-459q0 -37 -48.5 -67.5t-111.5 -30.5q-68 0 -113 29.5t-45 68.5z" />
<glyph unicode="n" horiz-adv-x="1093" d="M92 98v781q0 43 44 69.5t114 26.5q57 0 98 -26.5t41 -69.5v-48q33 66 105.5 111t169.5 45q141 0 244.5 -127t103.5 -303v-459q0 -47 -47 -72.5t-113 -25.5q-61 0 -109.5 26.5t-48.5 71.5v459q0 59 -44 106.5t-103 47.5q-53 0 -95 -42t-42 -112v-459q0 -37 -48.5 -67.5 t-111.5 -30.5q-68 0 -113 29.5t-45 68.5z" />
<glyph unicode="o" horiz-adv-x="1042" d="M55 414v143q0 174 137.5 302t327.5 128q188 0 327.5 -127t139.5 -303v-143q0 -172 -140 -303t-326.5 -131t-326 131t-139.5 303zM373 414q0 -61 43 -109.5t104.5 -48.5t105.5 48t44 110v143q0 59 -45 106.5t-104.5 47.5t-103.5 -47.5t-44 -106.5v-143z" />
<glyph unicode="p" horiz-adv-x="1091" d="M94 -346v1225q0 43 44 69.5t107.5 26.5t104.5 -26.5t41 -69.5v-48q39 66 113 111t164 45q154 0 260 -126t106 -304v-143q0 -172 -107.5 -303t-248.5 -131q-86 0 -161 48t-105 115v-489q0 -37 -48.5 -67.5t-114 -30.5t-110.5 29.5t-45 68.5zM412 387q0 -33 46 -82t107 -49 q59 0 105.5 48t46.5 110v143q0 59 -46 106.5t-110 47.5q-59 0 -104 -42t-45 -112v-170z" />
<glyph unicode="q" horiz-adv-x="1091" d="M57 414v143q0 178 106.5 304t260.5 126q90 0 164 -45t112 -111v48q0 43 41 69.5t104.5 26.5t107.5 -26.5t44 -69.5v-1225q0 -39 -45 -68.5t-110.5 -29.5t-113.5 30.5t-48 67.5v489q-31 -68 -105.5 -115.5t-160.5 -47.5q-141 0 -249 131t-108 303zM375 414 q0 -61 46 -109.5t105 -48.5q61 0 107.5 49t46.5 82v170q0 70 -45 112t-105 42q-63 0 -109 -47.5t-46 -106.5v-143z" />
<glyph unicode="r" horiz-adv-x="806" d="M92 98v781q0 43 44 69.5t112 26.5q59 0 100 -26.5t41 -69.5v-76q33 74 101.5 129t142.5 55h59q45 0 79 -41t34 -96q0 -57 -34 -98t-79 -41h-59q-88 0 -155.5 -85t-67.5 -220v-308q0 -37 -48.5 -67.5t-114 -30.5t-110.5 29.5t-45 68.5z" />
<glyph unicode="s" horiz-adv-x="878" d="M43 168q0 43 30.5 91t73.5 48q25 0 61 -22.5t90 -46t126 -23.5q127 0 127 68q0 37 -49 60.5t-120 39.5t-141.5 43t-119.5 88t-49 158q0 131 92 223t293 92q137 0 242.5 -42t105.5 -105q0 -41 -33 -95.5t-82 -54.5q-20 0 -94 31t-135 31q-57 0 -87 -19.5t-30 -46.5 q0 -31 50 -49.5t121 -35.5t141.5 -45t120.5 -94.5t50 -166.5q0 -147 -103 -231t-292 -84q-160 0 -274.5 56t-114.5 132z" />
<glyph unicode="t" horiz-adv-x="745" d="M88 346v957q0 41 49 68.5t109 27.5q63 0 111.5 -28t48.5 -68v-328h231q37 0 57.5 -34t20.5 -79q0 -47 -20.5 -79.5t-57.5 -32.5h-231v-404q0 -45 18 -62.5t65 -17.5h89q66 0 100.5 -40t34.5 -93q0 -55 -35 -94t-100 -39h-89q-401 0 -401 346z" />
<glyph unicode="u" horiz-adv-x="1095" d="M82 410v467q0 37 47 67.5t113 30.5q61 0 109 -31t48 -67v-467q0 -59 45 -106.5t104.5 -47.5t103.5 47t44 107v469q0 39 48.5 67.5t111.5 28.5q68 0 113 -28.5t45 -67.5v-469q0 -172 -138.5 -301t-326.5 -129q-190 0 -328.5 129t-138.5 301z" />
<glyph unicode="v" horiz-adv-x="1030" d="M2 856q0 51 74 92t141.5 41t87.5 -51l211 -535l211 535q20 51 86 51q57 0 136 -42t79 -93q0 -18 -8 -37l-361 -788q-25 -55 -143 -55q-1 0 -3 -1q-117 0 -140 56l-361 788q-10 16 -10 39z" />
<glyph unicode="w" horiz-adv-x="1437" d="M4 860q0 51 70.5 89t138.5 38q72 0 88 -49l182 -520l131 440q18 62 104 62h2q85 0 103 -62l131 -440l183 520q16 49 86 49q68 0 138.5 -39t70.5 -92q0 -23 -9 -39l-315 -788q-23 -55 -123 -56q-111 0 -131 56l-135 356l-135 -356q-20 -55 -133 -56q-98 0 -121 56 l-316 788q-10 27 -10 43z" />
<glyph unicode="x" horiz-adv-x="1009" d="M37 137q0 27 18 53l232 308l-209 278q-20 27 -21 51q0 51 76 105.5t139 54.5q47 0 68 -33l164 -268l166 266q20 35 71 35q59 0 135 -54t76 -106q0 -23 -20 -51l-211 -280l233 -306q18 -23 19 -53q0 -49 -73 -103t-136 -54q-49 0 -72 32l-188 283l-187 -283 q-24 -32 -72 -32h-3q-53 0 -129 53t-76 104z" />
<glyph unicode="y" horiz-adv-x="1015" d="M2 -309q0 131 78 131q291 0 291 262l-359 713q-10 20 -10 41q0 57 74 104t141.5 47t87.5 -51l232 -555l170 555q20 51 81 51q63 0 141.5 -48t78.5 -110q0 -20 -9 -34l-290 -725q-10 -29 -37 -97l-37 -94q-10 -31 -38 -85t-51.5 -80.5t-64.5 -63.5t-86 -53.5t-108.5 -29.5 t-139.5 -13q-72 0 -108.5 26.5t-36.5 108.5z" />
<glyph unicode="z" horiz-adv-x="917" d="M37 111q0 59 55 131l363 477h-314q-37 0 -63.5 38t-26.5 91t24.5 90t65.5 37h613q41 0 69.5 -26.5t28.5 -78.5q0 -70 -51 -137l-365 -477h363q37 0 63.5 -38t26.5 -91t-24.5 -90t-65.5 -37h-658q-53 0 -78.5 33t-25.5 78z" />
<glyph unicode="{" horiz-adv-x="778" d="M35 792.5q0 49.5 19.5 75t42 31.5t42 20.5t19.5 41.5q0 18 -15.5 117.5t-15.5 135.5q0 137 141.5 248t306.5 111q96 0 137.5 -40t41.5 -99q0 -49 -26 -89t-71 -40q-70 0 -140.5 -31t-70.5 -103q0 -25 15.5 -126t15.5 -125q0 -43 -26.5 -85t-47.5 -49q25 -6 49.5 -46 t24.5 -85q0 -27 -15.5 -164t-15.5 -155q0 -57 69 -83t142 -26q51 0 74 -42t23 -91q0 -135 -183 -135q-170 0 -307 97.5t-137 238.5q0 39 15.5 171t15.5 150q0 29 -19.5 44.5t-42 21.5t-42 33.5t-19.5 77z" />
<glyph unicode="|" horiz-adv-x="522" d="M102 55v1422q0 43 44 69.5t114 26.5q68 0 114 -26.5t46 -69.5v-1422q0 -37 -47 -67.5t-113 -30.5q-68 0 -113 29.5t-45 68.5z" />
<glyph unicode="}" horiz-adv-x="778" d="M25 94q0 49 22.5 91t73.5 42q74 0 142.5 26t68.5 83q0 18 -15.5 155.5t-15.5 163.5q0 45 24.5 85t49.5 46q-20 6 -47 48.5t-27 85.5q0 25 15.5 126t15.5 125q0 72 -71 103t-140 31q-45 0 -70.5 39.5t-25.5 89.5q0 59 40.5 99t137.5 40q166 0 307 -110.5t141 -248.5 q0 -37 -15 -136t-15 -117q0 -27 19 -41.5t42 -20.5t42 -31.5t19 -75t-19 -77t-42 -33.5t-42 -21.5t-19 -44.5q0 -18 15 -150t15 -171q0 -141 -137 -238.5t-307 -97.5q-182 0 -182 135z" />
<glyph unicode="~" horiz-adv-x="841" d="M57 506q0 150 174 149q63 0 153.5 -27.5t145.5 -27.5q47 0 102.5 21.5t74.5 21.5q41 0 59 -36t18 -64q0 -150 -174 -150q-78 0 -167 28t-132 28q-47 0 -102 -21.5t-74 -21.5q-41 0 -59.5 35.5t-18.5 64.5z" />
<glyph unicode="&#xa1;" horiz-adv-x="468" d="M76 1339.5q0 63.5 46 110.5t109 47q66 0 112 -47t46 -111q0 -66 -45 -111.5t-113 -45.5q-63 0 -109 47t-46 110.5zM86 113q0 121 14.5 417.5t14.5 419.5q0 43 37.5 66.5t80.5 23.5q121 0 121 -90q0 -123 14.5 -420t14.5 -417q0 -57 -42 -91t-108 -34q-63 0 -105 34 t-42 91z" />
<glyph unicode="&#xa2;" horiz-adv-x="917" d="M47 741v37q0 180 99.5 297t297.5 135v131q0 37 26 59.5t62.5 22.5t63.5 -23.5t27 -58.5v-139q104 -16 167.5 -61t63.5 -99q0 -49 -36 -97t-87 -48q-14 0 -30.5 7t-38 19.5t-39.5 18.5v-362q16 8 37.5 21t38 21.5t32.5 8.5q59 0 97 -46t38 -98q0 -55 -68.5 -103 t-174.5 -69v-149q0 -33 -28 -59.5t-63 -26.5q-37 0 -62.5 26.5t-25.5 59.5v143q-201 18 -299 134t-98 298zM324 741q0 -137 120 -168v373q-121 -31 -120 -168v-37z" />
<glyph unicode="&#xa3;" horiz-adv-x="1157" d="M41 139.5q0 57.5 24.5 98.5t67.5 41h103l65 471h-96q-37 0 -57.5 32.5t-20.5 79.5q0 45 20.5 79t57.5 34h129l20 141q29 199 188.5 328t362.5 129h86q47 0 75 -41t28 -96.5t-28 -97.5t-75 -42h-96q-199 0 -223 -180l-21 -141h219q37 0 57.5 -34t20.5 -79 q0 -47 -20.5 -79.5t-57.5 -32.5h-252l-67 -471h450q43 0 68 -41t25 -98.5t-25 -98.5t-68 -41h-868q-43 0 -67.5 41t-24.5 98.5z" />
<glyph unicode="&#xa4;" horiz-adv-x="901" d="M86 686q0 14 12 27l54 49q-63 92 -63.5 204.5t63.5 204.5l-54 50q-12 12 -12 26q0 23 19.5 43.5t44.5 20.5q16 0 28 -11l49 -45q100 80 224 80q121 0 223 -80l49 45q12 10 29 11q25 0 44 -20.5t19 -43.5q0 -14 -12 -26l-53 -50q66 -92 65 -202q0 -113 -65 -207l53 -49 q12 -12 12 -27q0 -23 -19.5 -43t-43.5 -20q-16 0 -29 10l-49 45q-100 -84 -223 -84q-121 0 -224 82l-49 -43q-12 -10 -28 -10q-25 0 -44.5 20t-19.5 43zM252 967q0 -82 58.5 -144.5t140 -62.5t141 62.5t59.5 142t-59.5 142t-141 62.5t-140 -61t-58.5 -141z" />
<glyph unicode="&#xa5;" horiz-adv-x="1202" d="M41 1380q0 47 64.5 89t127.5 42q31 0 48.5 -17t37.5 -56l283 -514l281 514q20 39 37.5 56t48.5 17q61 0 126.5 -43t65.5 -86q0 -23 -10 -39l-320 -489h101q37 0 67.5 -33t30.5 -78q0 -47 -29.5 -77.5t-68.5 -30.5h-170v-123h170q37 0 67.5 -33t30.5 -78t-29.5 -76.5 t-68.5 -31.5h-170v-195q0 -47 -47 -72.5t-112.5 -25.5t-113 25.5t-47.5 72.5v195h-166q-43 0 -69.5 29.5t-26.5 76.5q0 49 26.5 81t69.5 32h166v123h-166q-43 0 -69.5 29.5t-26.5 76.5q0 49 26.5 81t69.5 32h95l-320 489q-10 12 -10 37z" />
<glyph unicode="&#xa6;" horiz-adv-x="522" d="M102 55v494q0 43 44 69.5t114 26.5q68 0 114 -26.5t46 -69.5v-494q0 -37 -47 -67.5t-113 -30.5q-68 0 -113 29.5t-45 68.5zM102 983v494q0 43 44 69.5t114 26.5q68 0 114 -26.5t46 -69.5v-494q0 -37 -47 -67.5t-113 -30.5q-68 0 -113 29.5t-45 68.5z" />
<glyph unicode="&#xa7;" horiz-adv-x="993" d="M78 203q0 70 32.5 96.5t100.5 26.5q135 0 135 -84q0 -123 123 -123q70 0 102.5 30.5t32.5 75.5q0 57 -54 97t-132 75t-155 82t-131 142.5t-54 232.5v205q0 127 39 217t104.5 136t133 65.5t141.5 19.5q184 0 285.5 -105.5t101.5 -240.5q0 -70 -29 -95.5t-88 -25.5 q-133 0 -133 96q0 117 -127 117q-70 0 -103.5 -33.5t-33.5 -79.5q0 -57 57 -97t139 -74.5t163 -82t138.5 -142.5t57.5 -232v-205q0 -127 -41 -217t-109.5 -136t-139.5 -65.5t-149 -19.5q-193 0 -300 105.5t-107 238.5zM338 786q0 -66 39 -112.5t86 -67.5l112 -49 q63 -27 93 -49v37q0 66 -39 113t-88 67l-111 49q-63 27 -92 49v-37z" />
<glyph unicode="&#xa8;" horiz-adv-x="559" d="M0 1290q0 47 35 83t82 36t80.5 -36t33.5 -83q0 -49 -33.5 -85t-80.5 -36t-82 37t-35 84zM328 1290q0 47 34.5 83t82 36t81 -36t33.5 -83q0 -49 -33.5 -85t-81 -36t-82 37t-34.5 84z" />
<glyph unicode="&#xa9;" horiz-adv-x="1392" d="M68 733q0 164 58 296t152.5 211t204 121t220 42t219 -42t199.5 -121t147.5 -209t56.5 -290q0 -164 -58.5 -296t-152.5 -210.5t-203.5 -120.5t-220 -42t-219.5 42t-200 120.5t-147 208.5t-56 290zM211 733q0 -229 130 -373.5t349 -144.5t355.5 145.5t136.5 380.5 q0 229 -131 374t-349 145q-219 0 -355 -145.5t-136 -381.5zM442 618v267q0 139 71 203.5t185 64.5q117 0 192 -60.5t75 -164.5q0 -47 -19.5 -64.5t-62.5 -17.5q-82 0 -84 53q-6 104 -94 105q-96 0 -97 -119v-267q0 -119 97 -118q39 0 61 22.5t25.5 41t7.5 52.5q2 51 82 52 q45 0 64.5 -17.5t19.5 -64.5q0 -109 -75 -172.5t-192 -63.5q-115 0 -185.5 64.5t-70.5 203.5z" />
<glyph unicode="&#xaa;" horiz-adv-x="692" d="M43 1073q0 115 85 162t241 47h51v14q0 45 -26.5 78t-82.5 33q-66 0 -109.5 -22.5t-51.5 -22.5q-31 0 -50.5 31.5t-19.5 70.5q0 45 75.5 77t157.5 32q158 0 235 -79t77 -196v-333q0 -27 -29 -45.5t-72 -18.5q-39 0 -64.5 18.5t-25.5 45.5v34q-72 -82 -149 -102 q-27 -8 -66 -8q-76 2 -126 49t-50 135zM250 1102q0 -63 59 -64q39 0 75 39t36 90v13h-37q-133 0 -133 -78z" />
<glyph unicode="&#xab;" horiz-adv-x="1099" d="M43 565.5q0 16.5 6 30.5t25 43l26 49l138 256q20 39 86 39q76 0 138 -54.5t62 -105.5q0 -16 -6 -28l-121 -228l121 -227q6 -12 6 -29q0 -51 -62.5 -105t-137.5 -54q-66 0 -86 38l-138 256q-10 20 -27.5 47t-23.5 41.5t-6 31zM555 565.5q0 16.5 6 30.5t25 43l26 49 l138 256q20 39 86 39q76 0 138 -54.5t62 -105.5q0 -16 -6 -28l-121 -228l121 -227q6 -12 6 -29q0 -51 -62.5 -105t-137.5 -54q-66 0 -86 38l-138 256q-10 20 -27.5 47t-23.5 41.5t-6 31z" />
<glyph unicode="&#xac;" horiz-adv-x="1032" d="M53 492q0 55 26.5 93t70.5 38h698q39 0 68.5 -39t29.5 -92v-265q0 -37 -47 -67.5t-113 -30.5q-68 0 -112.5 29.5t-44.5 68.5v135h-479q-43 0 -70 36.5t-27 93.5z" />
<glyph unicode="&#xad;" horiz-adv-x="974" d="M63 492q0 55 27 93t70 38h655q39 0 68.5 -39t29.5 -92q0 -55 -29.5 -92.5t-68.5 -37.5h-655q-43 0 -70 36.5t-27 93.5z" />
<glyph unicode="&#xae;" horiz-adv-x="1392" d="M68 733q0 164 58 296t152.5 211t204 121t220 42t219 -42t199.5 -121t147.5 -209t56.5 -290q0 -164 -58.5 -296t-152.5 -210.5t-203.5 -120.5t-220 -42t-219.5 42t-200 120.5t-147 208.5t-56 290zM211 733q0 -229 130 -373.5t349 -144.5t355.5 145.5t136.5 380.5 q0 229 -131 374t-349 145q-219 0 -355 -145.5t-136 -381.5zM467 426v643q0 20 14.5 35.5t36.5 15.5h207q111 0 180.5 -52t69.5 -169q0 -158 -129 -209l121 -221q2 -4 2 -14q0 -31 -27 -57.5t-57 -26.5q-29 0 -47 35l-129 258h-86v-238q0 -25 -21.5 -39t-52.5 -14 q-33 0 -57.5 14t-24.5 39zM623 795h102q96 0 96 88q0 100 -96 100h-102v-188z" />
<glyph unicode="&#xaf;" horiz-adv-x="604" d="M0 1329q0 43 26.5 73t69.5 30h410q39 0 68.5 -30t29.5 -73t-29.5 -71.5t-68.5 -28.5h-410q-43 0 -69.5 27.5t-26.5 72.5z" />
<glyph unicode="&#xb0;" horiz-adv-x="796" d="M35 1204.5q0 147.5 107.5 258t255 110.5t256 -108.5t108.5 -258t-109.5 -262.5t-255 -113t-254 113t-108.5 260.5zM199 1204q0 -82 58 -144.5t140 -62.5t141.5 62.5t59.5 142.5t-59.5 142.5t-141.5 62.5t-140 -61.5t-58 -141.5z" />
<glyph unicode="&#xb1;" horiz-adv-x="968" d="M59 174q0 55 27 93t70 38h655q39 0 68.5 -39t29.5 -92q0 -55 -29.5 -92t-68.5 -37h-655q-43 0 -70 36t-27 93zM59 768q0 55 27 93t70 38h198v176q0 39 39 69t92 30q55 0 92 -30t37 -69v-176h197q39 0 68.5 -39t29.5 -92q0 -55 -29.5 -92t-68.5 -37h-197v-178 q0 -43 -35.5 -69.5t-93.5 -26.5q-55 0 -93 26.5t-38 69.5v178h-198q-43 0 -70 36t-27 93z" />
<glyph unicode="&#xb2;" horiz-adv-x="667" d="M39 721v113q0 59 59.5 120.5t132 104.5t132 95t59.5 95q0 25 -20.5 44.5t-63.5 19.5q-84 0 -84 -74q0 -29 -29.5 -51.5t-79.5 -22.5q-92 0 -92 104.5t84 166t199 61.5q117 0 205 -63.5t88 -178.5q0 -82 -58.5 -152.5t-129 -110.5t-129 -80t-58.5 -66v-8h311 q25 0 43.5 -27t18.5 -61.5t-18.5 -62.5t-43.5 -28h-436q-31 0 -60.5 17.5t-29.5 44.5z" />
<glyph unicode="&#xb3;" horiz-adv-x="688" d="M31 877q0 43 21.5 57t76.5 14q61 0 82.5 -14t21.5 -51q0 -25 18.5 -36t36 -13.5t48.5 -2.5q59 0 81.5 18.5t22.5 65.5v23q0 47 -27.5 61.5t-82.5 14.5q-59 0 -59.5 77.5t59.5 79.5q23 2 32 3.5t25 8.5t23.5 25.5t7.5 46.5q0 68 -84 68q-33 0 -46.5 -2t-24.5 -11.5 t-11 -29.5q0 -72 -96 -72q-70 0 -88.5 15.5t-18.5 62.5q0 86 68.5 148.5t216.5 62.5q281 0 280 -209q0 -61 -24.5 -114.5t-69.5 -71.5q125 -41 125 -164v-23q0 -135 -87 -198.5t-230 -63.5q-147 0 -222 69t-75 155z" />
<glyph unicode="&#xb4;" horiz-adv-x="452" d="M0 1264q0 51 41 71l287 133q16 6 28 7q39 0 68 -38t29 -81q0 -49 -41 -70l-287 -133q-20 -8 -31 -8q-39 0 -66.5 38t-27.5 81z" />
<glyph unicode="&#xb5;" horiz-adv-x="1083" d="M104 -346v1223q0 37 47.5 67.5t112.5 30.5q61 0 109.5 -31t48.5 -67v-467q0 -59 45 -106.5t104.5 -47.5t103.5 47t44 107v469q0 39 48 67.5t112 28.5q68 0 112.5 -28.5t44.5 -67.5v-469q0 -172 -137 -301t-328 -129q-98 0 -190 59v-385q0 -37 -36 -67.5t-85 -30.5 q-66 0 -111 29.5t-45 68.5z" />
<glyph unicode="&#xb6;" horiz-adv-x="1171" d="M45 1051v24q0 219 109.5 320.5t291.5 101.5h506q39 0 69 -25.5t30 -72.5v-1303q0 -47 -29 -71.5t-70 -24.5t-69.5 24.5t-28.5 71.5v1266h-174v-1264q0 -47 -28.5 -72.5t-69.5 -25.5t-70 25.5t-29 72.5v529h-37q-182 0 -291.5 102.5t-109.5 321.5z" />
<glyph unicode="&#xb7;" horiz-adv-x="436" d="M51 614.5q0 59.5 49.5 102.5t118.5 43q68 0 117 -43t49 -102.5t-49 -103.5t-117 -44q-70 0 -119 44t-49 103.5z" />
<glyph unicode="&#xb8;" horiz-adv-x="407" d="M0 -385q0 20 14.5 53t38.5 33q8 0 45 -14.5t74 -14.5q94 0 94 64q0 61 -88 69l-127 13l60 200h131l-39 -114q100 -4 152.5 -49t52.5 -113q0 -70 -53.5 -130.5t-174.5 -60.5q-66 0 -123 17.5t-57 46.5z" />
<glyph unicode="&#xb9;" horiz-adv-x="411" d="M2 1346q0 47 37 67l172 82q14 6 35 6q35 0 63.5 -17.5t28.5 -45.5v-717q0 -29 -31 -45.5t-71 -16.5q-43 0 -74 16.5t-31 45.5v559l-33 -8q-18 -6 -32 -6q-27 0 -45.5 24.5t-18.5 55.5z" />
<glyph unicode="&#xba;" horiz-adv-x="714" d="M45 1180v102q0 117 91 204t220 87q127 0 220.5 -86t93.5 -205v-102q0 -117 -94.5 -205t-219.5 -88t-218 88t-93 205zM250 1180q0 -45 31.5 -79t74.5 -34q45 0 77 34t32 79v102q0 43 -33 77t-76 34t-74.5 -34t-31.5 -77v-102z" />
<glyph unicode="&#xbb;" horiz-adv-x="1099" d="M63 311q0 16 7 29l120 227l-120 228q-6 12 -7 28q0 51 62.5 105.5t138.5 54.5q68 0 86 -39l137 -256l23 -41l18 -31q6 -10 11.5 -24t5.5 -27q0 -16 -6.5 -30.5t-23.5 -41t-28 -47.5l-137 -256q-18 -39 -86 -38q-76 0 -138.5 54t-62.5 105zM575 311q0 16 7 29l120 227 l-120 228q-6 12 -7 28q0 51 62.5 105.5t138.5 54.5q68 0 86 -39l137 -256l23 -41l18 -31q6 -10 11.5 -24t5.5 -27q0 -16 -6.5 -30.5t-23.5 -41t-28 -47.5l-137 -256q-18 -39 -86 -38q-76 0 -138.5 54t-62.5 105z" />
<glyph unicode="&#xbc;" horiz-adv-x="1415" d="M47 1346q0 47 37 67l172 82q14 6 35 6q35 0 63.5 -17.5t28.5 -45.5v-717q0 -29 -30.5 -45.5t-71.5 -16.5q-43 0 -74 16.5t-31 45.5v559l-33 -8q-18 -6 -32 -6q-27 0 -45.5 24.5t-18.5 55.5zM166 14q0 18 10 39l719 1477q25 51 86 51q45 0 83 -30.5t38 -77.5q0 -23 -8 -39 l-721 -1477q-25 -51 -92 -51q-49 0 -82 33.5t-33 74.5zM707 242q0 18 10 37l280 507q29 51 86 52q31 0 67 -21.5t36 -54.5q0 -12 -6 -25l-209 -377h88v43q0 31 29.5 46.5t72.5 15.5q104 0 105 -62v-43h51q29 0 45 -27.5t16 -66.5q0 -35 -19.5 -64.5t-41.5 -29.5h-51v-111 q0 -29 -31 -45t-74 -16q-41 0 -71.5 16.5t-30.5 44.5v111h-285q-29 0 -48 18.5t-19 51.5z" />
<glyph unicode="&#xbd;" horiz-adv-x="1380" d="M43 1346q0 47 37 67l172 82q14 6 35 6q35 0 63.5 -17.5t28.5 -45.5v-717q0 -29 -31 -45.5t-72 -16.5q-43 0 -73.5 16.5t-30.5 45.5v559l-33 -8q-18 -6 -33 -6q-27 0 -45 24.5t-18 55.5zM129 14q0 18 10 39l719 1477q25 51 86 51q45 0 83 -30.5t38 -77.5q0 -23 -8 -39 l-721 -1477q-25 -51 -92 -51q-49 0 -82 33.5t-33 74.5zM737 61v113q0 59 59.5 120.5t132 104.5t132 95.5t59.5 95.5q0 25 -20.5 44t-63.5 19q-84 0 -84 -73q0 -29 -29.5 -51.5t-78.5 -22.5q-92 0 -92 104.5t84 166t198 61.5q117 0 205 -63.5t88 -178.5q0 -82 -58.5 -152.5 t-129 -110.5t-129 -80t-58.5 -67v-8h312q25 0 43 -26.5t18 -61.5t-18.5 -62.5t-42.5 -27.5h-437q-31 0 -60.5 17t-29.5 44z" />
<glyph unicode="&#xbe;" horiz-adv-x="1691" d="M55 877q0 43 21.5 57t77.5 14q61 0 82.5 -14t21.5 -51q0 -25 18.5 -36t36 -13.5t47.5 -2.5q59 0 82 18.5t23 65.5v23q0 47 -27.5 61.5t-83.5 14.5q-59 0 -59 77.5t59 79.5q23 2 32 3.5t25.5 8.5t23.5 25.5t7 46.5q0 68 -84 68q-33 0 -46 -2t-24.5 -11.5t-11.5 -29.5 q0 -72 -96 -72q-70 0 -88 15.5t-18 62.5q0 86 68.5 148.5t215.5 62.5q281 0 281 -209q0 -61 -24.5 -114.5t-69.5 -71.5q125 -41 125 -164v-23q0 -135 -87 -198.5t-231 -63.5q-147 0 -222 69t-75 155zM430 14q0 18 10 39l719 1477q25 51 86 51q45 0 83 -30.5t38 -77.5 q0 -23 -8 -39l-721 -1477q-25 -51 -92 -51q-49 0 -82 33.5t-33 74.5zM983 242q0 18 10 37l281 507q29 51 86 52q31 0 66.5 -21.5t35.5 -54.5q0 -12 -6 -25l-209 -377h88v43q0 31 30 46.5t73 15.5q104 0 104 -62v-43h51q29 0 45.5 -27.5t16.5 -66.5q0 -35 -19.5 -64.5 t-42.5 -29.5h-51v-111q0 -29 -30.5 -45t-73.5 -16q-41 0 -72 16.5t-31 44.5v111h-284q-29 0 -48.5 18.5t-19.5 51.5z" />
<glyph unicode="&#xbf;" horiz-adv-x="925" d="M45 326q0 197 229 374q53 43 79 85t31 74t5 97q0 84 121 84q63 0 88 -28.5t25 -108.5q0 -193 -138 -311q-6 -6 -53 -43t-65.5 -55.5t-41 -56.5t-22.5 -77q0 -68 51.5 -103.5t132.5 -35.5q70 0 115 24.5t59.5 54.5t39 54.5t61.5 24.5q47 0 85 -31t38 -86 q0 -98 -106.5 -186t-297.5 -88q-195 0 -315.5 96.5t-120.5 241.5zM350 1339q0 63 46 110.5t111.5 47.5t111 -47t45.5 -111q0 -66 -46.5 -111.5t-109.5 -45.5q-66 0 -112 45.5t-46 111.5z" />
<glyph unicode="&#xc0;" d="M8 131q0 6 4 23l381 1249q16 51 74.5 78.5t134.5 27.5t134.5 -27.5t74.5 -78.5l383 -1249q4 -16 4 -23q0 -53 -66.5 -92t-138.5 -39q-88 0 -104 59l-70 256h-432l-70 -256q-16 -59 -104 -59q-72 0 -138.5 39t-66.5 92zM340 1845q0 43 28.5 81t67.5 38q14 0 29 -6 l287 -133q41 -20 41 -72q0 -43 -28 -81t-67 -38q-10 0 -30 8l-287 134q-41 20 -41 69zM453 561h299l-150 549z" />
<glyph unicode="&#xc1;" d="M8 131q0 6 4 23l381 1249q16 51 74.5 78.5t134.5 27.5t134.5 -27.5t74.5 -78.5l383 -1249q4 -16 4 -23q0 -53 -66.5 -92t-138.5 -39q-88 0 -104 59l-70 256h-432l-70 -256q-16 -59 -104 -59q-72 0 -138.5 39t-66.5 92zM453 561h299l-150 549zM453 1753q0 51 41 72 l286 133q14 6 29 6q39 0 67.5 -38t28.5 -81q0 -49 -41 -69l-286 -134q-20 -8 -31 -8q-39 0 -66.5 38t-27.5 81z" />
<glyph unicode="&#xc2;" d="M8 131q0 6 4 23l381 1249q16 51 74.5 78.5t134.5 27.5t134.5 -27.5t74.5 -78.5l383 -1249q4 -16 4 -23q0 -53 -66.5 -92t-138.5 -39q-88 0 -104 59l-70 256h-432l-70 -256q-16 -59 -104 -59q-72 0 -138.5 39t-66.5 92zM303 1749q0 61 51 90l213 115q20 10 34.5 10 t35.5 -10l213 -115q51 -29 51 -90q0 -37 -18.5 -65.5t-44.5 -28.5q-10 0 -23 6l-213 115l-213 -115q-12 -6 -22 -6q-27 0 -45.5 28.5t-18.5 65.5zM453 561h299l-150 549z" />
<glyph unicode="&#xc3;" d="M8 131q0 6 4 23l381 1249q16 51 74.5 78.5t134.5 27.5t134.5 -27.5t74.5 -78.5l383 -1249q4 -16 4 -23q0 -53 -66.5 -92t-138.5 -39q-88 0 -104 59l-70 256h-432l-70 -256q-16 -59 -104 -59q-72 0 -138.5 39t-66.5 92zM240 1788q0 150 174 149q63 0 153 -27.5t146 -27.5 q47 0 102 21.5t74 21.5q41 0 59.5 -36t18.5 -64q0 -150 -174 -150q-78 0 -167 28t-132 28q-47 0 -102.5 -21.5t-74.5 -21.5q-41 0 -59 35.5t-18 64.5zM453 561h299l-150 549z" />
<glyph unicode="&#xc4;" d="M8 131q0 6 4 23l381 1249q16 51 74.5 78.5t134.5 27.5t134.5 -27.5t74.5 -78.5l383 -1249q4 -16 4 -23q0 -53 -66.5 -92t-138.5 -39q-88 0 -104 59l-70 256h-432l-70 -256q-16 -59 -104 -59q-72 0 -138.5 39t-66.5 92zM326 1780q0 47 34.5 82.5t81.5 35.5t81 -35.5 t34 -82.5q0 -49 -34 -85t-81 -36t-81.5 37t-34.5 84zM453 561h299l-150 549zM653 1780q0 47 35 82.5t82 35.5t81 -35.5t34 -82.5q0 -49 -34 -85t-81 -36t-82 37t-35 84z" />
<glyph unicode="&#xc5;" d="M8 131q0 6 4 23l381 1249q16 51 74.5 78.5t134.5 27.5t134.5 -27.5t74.5 -78.5l383 -1249q4 -16 4 -23q0 -53 -66.5 -92t-138.5 -39q-88 0 -104 59l-70 256h-432l-70 -256q-16 -59 -104 -59q-72 0 -138.5 39t-66.5 92zM397 1858q0 82 59.5 144t143.5 62q82 0 144.5 -62.5 t62.5 -143.5q0 -84 -62.5 -147.5t-144.5 -63.5t-142.5 63.5t-60.5 147.5zM453 561h299l-150 549zM518 1855q0 -33 24.5 -59.5t59.5 -26.5q33 0 56.5 27t23.5 59q0 31 -23.5 55.5t-56.5 24.5q-35 0 -59.5 -24.5t-24.5 -55.5z" />
<glyph unicode="&#xc6;" horiz-adv-x="1673" d="M104 109v905q0 250 132.5 366.5t351.5 116.5h960q47 0 72 -41t25 -96q0 -59 -26 -100t-71 -41h-463v-347h222q45 0 70.5 -36.5t25.5 -87.5q0 -47 -24.5 -84t-71.5 -37h-222v-348h463q45 0 71 -41t26 -101q0 -55 -25 -96t-72 -41h-643q-57 0 -98 25.5t-41 72.5v529h-363 v-518q0 -53 -31.5 -81t-127.5 -28q-140 0 -140 109zM403 872h363v347h-178q-184 0 -185 -205v-142z" />
<glyph unicode="&#xc7;" horiz-adv-x="1150" d="M94 471v543q0 250 136.5 366.5t355.5 116.5q225 0 369.5 -108.5t144.5 -298.5q0 -88 -37 -120t-123 -32q-154 0 -160 96q-6 184 -182 185q-184 0 -184 -205v-543q0 -205 186 -205q57 0 95 18.5t54.5 56.5t21.5 62.5t9 67.5q8 96 158 96q88 0 125 -31.5t37 -119.5 q0 -182 -121 -294t-320 -130l-28 -88q100 -4 152.5 -49t52.5 -113q0 -70 -53.5 -130.5t-174.5 -60.5q-66 0 -123 17.5t-57 46.5q0 20 14.5 53t38.5 33q6 0 43 -14.5t76 -14.5q94 0 94 64q0 61 -88 69l-127 13l51 172q-197 12 -316.5 130t-119.5 351z" />
<glyph unicode="&#xc8;" horiz-adv-x="1103" d="M111 98v1301q0 47 41 72.5t98 25.5h729q47 0 71.5 -41t24.5 -96q0 -59 -25.5 -100t-70.5 -41h-549v-347h307q45 0 71 -36.5t26 -87.5q0 -47 -25 -84t-72 -37h-307v-348h549q45 0 70.5 -41t25.5 -101q0 -55 -24.5 -96t-71.5 -41h-729q-57 0 -98 25.5t-41 72.5zM354 1845 q0 43 29 81t68 38q12 0 28 -6l287 -133q41 -20 41 -72q0 -43 -27.5 -81t-66.5 -38q-10 0 -31 8l-287 134q-41 20 -41 69z" />
<glyph unicode="&#xc9;" horiz-adv-x="1103" d="M111 98v1301q0 47 41 72.5t98 25.5h729q47 0 71.5 -41t24.5 -96q0 -59 -25.5 -100t-70.5 -41h-549v-347h307q45 0 71 -36.5t26 -87.5q0 -47 -25 -84t-72 -37h-307v-348h549q45 0 70.5 -41t25.5 -101q0 -55 -24.5 -96t-71.5 -41h-729q-57 0 -98 25.5t-41 72.5zM416 1753 q0 51 41 72l286 133q14 6 29 6q39 0 67.5 -38t28.5 -81q0 -49 -41 -69l-286 -134q-20 -8 -31 -8q-39 0 -66.5 38t-27.5 81z" />
<glyph unicode="&#xca;" horiz-adv-x="1103" d="M111 98v1301q0 47 41 72.5t98 25.5h729q47 0 71.5 -41t24.5 -96q0 -59 -25.5 -100t-70.5 -41h-549v-347h307q45 0 71 -36.5t26 -87.5q0 -47 -25 -84t-72 -37h-307v-348h549q45 0 70.5 -41t25.5 -101q0 -55 -24.5 -96t-71.5 -41h-729q-57 0 -98 25.5t-41 72.5zM313 1749 q0 61 52 90l213 115q20 10 34.5 10t34.5 -10l213 -115q51 -29 51 -90q0 -37 -18.5 -65.5t-44.5 -28.5q-10 0 -23 6l-213 115l-213 -115q-12 -6 -22 -6q-27 0 -45.5 28.5t-18.5 65.5z" />
<glyph unicode="&#xcb;" horiz-adv-x="1103" d="M111 98v1301q0 47 41 72.5t98 25.5h729q47 0 71.5 -41t24.5 -96q0 -59 -25.5 -100t-70.5 -41h-549v-347h307q45 0 71 -36.5t26 -87.5q0 -47 -25 -84t-72 -37h-307v-348h549q45 0 70.5 -41t25.5 -101q0 -55 -24.5 -96t-71.5 -41h-729q-57 0 -98 25.5t-41 72.5zM319 1780 q0 47 35 82.5t82 35.5t81 -35.5t34 -82.5q0 -49 -34 -85t-81 -36t-82 37t-35 84zM647 1780q0 47 35 82.5t82 35.5t81 -35.5t34 -82.5q0 -49 -34 -85t-81 -36t-82 37t-35 84z" />
<glyph unicode="&#xcc;" horiz-adv-x="540" d="M27 1845q0 43 28.5 81t67.5 38q12 0 29 -6l286 -133q41 -20 41 -72q0 -43 -27.5 -81t-66.5 -38q-10 0 -31 8l-286 134q-41 20 -41 69zM111 98v1303q0 47 47 71.5t112.5 24.5t112.5 -24.5t47 -71.5v-1303q0 -47 -47 -72.5t-112.5 -25.5t-112.5 25.5t-47 72.5z" />
<glyph unicode="&#xcd;" horiz-adv-x="540" d="M63 1753q0 51 41 72l287 133q14 6 29 6q39 0 67.5 -38t28.5 -81q0 -49 -41 -69l-287 -134q-20 -8 -30 -8q-39 0 -67 38t-28 81zM111 98v1303q0 47 47 71.5t112.5 24.5t112.5 -24.5t47 -71.5v-1303q0 -47 -47 -72.5t-112.5 -25.5t-112.5 25.5t-47 72.5z" />
<glyph unicode="&#xce;" horiz-adv-x="540" d="M-25 1749q0 61 52 90l213 115q20 10 34.5 10t34.5 -10l213 -115q51 -29 51 -90q0 -37 -18 -65.5t-45 -28.5q-10 0 -23 6l-213 115l-213 -115q-12 -6 -22 -6q-27 0 -45.5 28.5t-18.5 65.5zM111 98v1303q0 47 47 71.5t112.5 24.5t112.5 -24.5t47 -71.5v-1303 q0 -47 -47 -72.5t-112.5 -25.5t-112.5 25.5t-47 72.5z" />
<glyph unicode="&#xcf;" horiz-adv-x="540" d="M-6 1780q0 47 34.5 82.5t82 35.5t81 -35.5t33.5 -82.5q0 -49 -33.5 -85t-81 -36t-82 37t-34.5 84zM111 98v1303q0 47 47 71.5t112.5 24.5t112.5 -24.5t47 -71.5v-1303q0 -47 -47 -72.5t-112.5 -25.5t-112.5 25.5t-47 72.5zM322 1780q0 47 34.5 82.5t81.5 35.5t81 -35.5 t34 -82.5q0 -49 -34 -85t-81 -36t-81.5 37t-34.5 84z" />
<glyph unicode="&#xd0;" horiz-adv-x="1220" d="M-20 782q0 45 20 79t57 34h66v506q0 39 39 67.5t100 28.5h363q229 0 366 -116.5t137 -366.5v-531q0 -250 -137 -366.5t-366 -116.5h-363q-61 0 -100 28.5t-39 67.5v574h-66q-37 0 -57 32.5t-20 79.5zM442 279h183q184 0 184 204v531q0 205 -184 205h-183v-324h127 q37 0 57.5 -34t20.5 -79q0 -47 -20.5 -79.5t-57.5 -32.5h-127v-391z" />
<glyph unicode="&#xd1;" horiz-adv-x="1267" d="M111 98v1301q0 47 47 72.5t112 25.5q92 0 136.5 -26.5t99.5 -133.5l332 -632v696q0 47 47 71.5t112.5 24.5t112.5 -24.5t47 -71.5v-1303q0 -47 -47 -72.5t-113 -25.5q-131 0 -178 86l-389 709v-697q0 -47 -47 -72.5t-112.5 -25.5t-112.5 25.5t-47 72.5zM252 1788 q0 150 174 149q63 0 153.5 -27.5t145.5 -27.5q47 0 102.5 21.5t73.5 21.5q41 0 59.5 -36t18.5 -64q0 -150 -174 -150q-78 0 -167 28t-132 28q-47 0 -102.5 -21.5t-73.5 -21.5q-41 0 -59.5 35.5t-18.5 64.5z" />
<glyph unicode="&#xd2;" horiz-adv-x="1193" d="M94 471v543q0 250 137.5 366.5t364.5 116.5q229 0 366.5 -116.5t137.5 -366.5v-543q0 -250 -137.5 -366.5t-366.5 -116.5q-227 0 -364.5 116.5t-137.5 366.5zM338 1845q0 43 28.5 81t67.5 38q12 0 29 -6l287 -133q41 -20 41 -72q0 -43 -28 -81t-67 -38q-10 0 -30 8 l-287 134q-41 20 -41 69zM414 471q0 -205 182 -205q184 0 184 205v543q0 205 -184 205q-182 0 -182 -205v-543z" />
<glyph unicode="&#xd3;" horiz-adv-x="1193" d="M94 471v543q0 250 137.5 366.5t364.5 116.5q229 0 366.5 -116.5t137.5 -366.5v-543q0 -250 -137.5 -366.5t-366.5 -116.5q-227 0 -364.5 116.5t-137.5 366.5zM414 471q0 -205 182 -205q184 0 184 205v543q0 205 -184 205q-182 0 -182 -205v-543zM461 1753q0 51 41 72 l286 133q14 6 29 6q39 0 67.5 -38t28.5 -81q0 -49 -41 -69l-286 -134q-20 -8 -31 -8q-39 0 -66.5 38t-27.5 81z" />
<glyph unicode="&#xd4;" horiz-adv-x="1193" d="M94 471v543q0 250 137.5 366.5t364.5 116.5q229 0 366.5 -116.5t137.5 -366.5v-543q0 -250 -137.5 -366.5t-366.5 -116.5q-227 0 -364.5 116.5t-137.5 366.5zM297 1749q0 61 51 90l213 115q20 10 34.5 10t35.5 -10l213 -115q51 -29 51 -90q0 -37 -18.5 -65.5t-45.5 -28.5 q-10 0 -22 6l-213 115l-213 -115q-12 -6 -23 -6q-27 0 -45 28.5t-18 65.5zM414 471q0 -205 182 -205q184 0 184 205v543q0 205 -184 205q-182 0 -182 -205v-543z" />
<glyph unicode="&#xd5;" horiz-adv-x="1193" d="M94 471v543q0 250 137.5 366.5t364.5 116.5q229 0 366.5 -116.5t137.5 -366.5v-543q0 -250 -137.5 -366.5t-366.5 -116.5q-227 0 -364.5 116.5t-137.5 366.5zM233 1788q0 150 175 149q63 0 153 -27.5t146 -27.5q47 0 102 21.5t74 21.5q41 0 59.5 -36t18.5 -64 q0 -150 -175 -150q-78 0 -167 28t-132 28q-47 0 -102 -21.5t-74 -21.5q-41 0 -59.5 35.5t-18.5 64.5zM414 471q0 -205 182 -205q184 0 184 205v543q0 205 -184 205q-182 0 -182 -205v-543z" />
<glyph unicode="&#xd6;" horiz-adv-x="1193" d="M94 471v543q0 250 137.5 366.5t364.5 116.5q229 0 366.5 -116.5t137.5 -366.5v-543q0 -250 -137.5 -366.5t-366.5 -116.5q-227 0 -364.5 116.5t-137.5 366.5zM319 1780q0 47 35 82.5t82 35.5t81 -35.5t34 -82.5q0 -49 -34 -85t-81 -36t-82 37t-35 84zM414 471 q0 -205 182 -205q184 0 184 205v543q0 205 -184 205q-182 0 -182 -205v-543zM647 1780q0 47 35 82.5t82 35.5t81 -35.5t34 -82.5q0 -49 -34 -85t-81 -36t-82 37t-35 84z" />
<glyph unicode="&#xd7;" horiz-adv-x="839" d="M70 362q0 35 24 60l162 141l-160 137q-23 23 -22 60q0 55 46 101t99 46q35 0 62 -22l137 -140l139 140q23 23 59 22q55 0 101.5 -46t46.5 -99q0 -39 -23 -62l-159 -137l161 -141q25 -25 25 -62q0 -53 -48 -100t-102 -47q-35 0 -59 25l-141 141l-139 -141q-25 -25 -62 -25 q-49 0 -98 49t-49 100z" />
<glyph unicode="&#xd8;" horiz-adv-x="1193" d="M94 471v543q0 250 137.5 366.5t364.5 116.5q131 0 233 -39l35 72q25 51 86 51q45 0 83 -30.5t38 -77.5q0 -23 -8 -39l-53 -107q90 -119 90 -313v-543q0 -250 -137.5 -366.5t-366.5 -116.5q-125 0 -223 32l-31 -63q-25 -51 -92 -51q-49 0 -82 33.5t-33 74.5q0 18 10 39 l45 92q-96 119 -96 326zM414 604l286 590q-43 25 -104 25q-182 0 -182 -205v-410zM502 285q39 -18 94 -19q184 0 184 205v383z" />
<glyph unicode="&#xd9;" horiz-adv-x="1241" d="M104 471v930q0 47 46.5 71.5t113.5 24.5q66 0 113 -24.5t47 -71.5v-930q0 -205 196.5 -205t196.5 205v930q0 47 46 71.5t114 24.5q66 0 113 -24.5t47 -71.5v-930q0 -250 -141.5 -366.5t-374.5 -116.5q-236 0 -376.5 116.5t-140.5 366.5zM348 1845q0 43 29 81t67 38 q14 0 29 -6l287 -133q41 -20 41 -72q0 -43 -28 -81t-66 -38q-10 0 -31 8l-287 134q-41 20 -41 69z" />
<glyph unicode="&#xda;" horiz-adv-x="1241" d="M104 471v930q0 47 46.5 71.5t113.5 24.5q66 0 113 -24.5t47 -71.5v-930q0 -205 196.5 -205t196.5 205v930q0 47 46 71.5t114 24.5q66 0 113 -24.5t47 -71.5v-930q0 -250 -141.5 -366.5t-374.5 -116.5q-236 0 -376.5 116.5t-140.5 366.5zM451 1753q0 51 41 72l286 133 q16 6 29 6q39 0 67.5 -38t28.5 -81q0 -49 -41 -69l-287 -134q-20 -8 -30 -8q-39 0 -66.5 38t-27.5 81z" />
<glyph unicode="&#xdb;" horiz-adv-x="1241" d="M104 471v930q0 47 46.5 71.5t113.5 24.5q66 0 113 -24.5t47 -71.5v-930q0 -205 196.5 -205t196.5 205v930q0 47 46 71.5t114 24.5q66 0 113 -24.5t47 -71.5v-930q0 -250 -141.5 -366.5t-374.5 -116.5q-236 0 -376.5 116.5t-140.5 366.5zM307 1749q0 61 51 90l213 115 q20 10 35 10t35 -10l213 -115q51 -29 51 -90q0 -37 -18.5 -65.5t-44.5 -28.5q-10 0 -23 6l-213 115l-213 -115q-12 -6 -22 -6q-27 0 -45.5 28.5t-18.5 65.5z" />
<glyph unicode="&#xdc;" horiz-adv-x="1241" d="M104 471v930q0 47 46.5 71.5t113.5 24.5q66 0 113 -24.5t47 -71.5v-930q0 -205 196.5 -205t196.5 205v930q0 47 46 71.5t114 24.5q66 0 113 -24.5t47 -71.5v-930q0 -250 -141.5 -366.5t-374.5 -116.5q-236 0 -376.5 116.5t-140.5 366.5zM340 1780q0 47 35 82.5t82 35.5 t80.5 -35.5t33.5 -82.5q0 -49 -33.5 -85t-80.5 -36t-82 37t-35 84zM668 1780q0 47 34.5 82.5t81.5 35.5t81 -35.5t34 -82.5q0 -49 -34 -85t-81 -36t-81.5 37t-34.5 84z" />
<glyph unicode="&#xdd;" horiz-adv-x="1208" d="M8 1366q0 53 73 92t144 39q37 0 55.5 -13.5t36.5 -45.5l287 -527l285 527q31 59 92 59q72 0 144.5 -39t72.5 -92q0 -14 -4 -23l-422 -702q-8 -12 -8 -29v-514q0 -47 -47 -72.5t-112.5 -25.5t-113 25.5t-47.5 72.5v514q0 16 -8 29l-424 702q-4 9 -4 23zM420 1753 q0 51 41 72l287 133q14 6 28 6q39 0 67.5 -38t28.5 -81q0 -49 -41 -69l-286 -134q-20 -8 -31 -8q-39 0 -66.5 38t-27.5 81z" />
<glyph unicode="&#xde;" horiz-adv-x="1083" d="M111 98v1338q0 43 44 69.5t107 26.5q72 0 119 -26.5t47 -69.5v-316q35 66 103.5 111t152.5 45q154 0 260.5 -126t106.5 -304v-144q0 -172 -107.5 -303t-249.5 -131q-86 0 -160.5 48.5t-105.5 115.5v-334q0 -37 -48 -67.5t-113.5 -30.5t-110.5 29.5t-45 68.5zM428 676 q0 -33 46 -82t108 -49q59 0 105 48t46 109v144q0 59 -46 106t-109 47q-59 0 -104.5 -42t-45.5 -111v-170z" />
<glyph unicode="&#xdf;" horiz-adv-x="1263" d="M-2 862q0 45 20.5 79t57.5 34h100v172q0 186 102.5 306t321.5 120q186 0 305 -96.5t119 -284.5q0 -100 -37 -188.5t-98 -120.5q123 -23 225.5 -139.5t102.5 -282.5v-23q0 -221 -139.5 -350t-342.5 -129q-39 0 -61.5 1t-52 8t-46 21.5t-27.5 41t-11 65.5q0 51 18 100.5 t55 49.5q10 0 52.5 -9.5t74.5 -9.5q80 0 124 48.5t44 134.5v22q0 74 -17.5 125t-54 82t-66.5 45t-83 33q-45 14 -65.5 38.5t-20.5 90.5q0 61 18.5 80.5t69.5 34.5q80 23 80 159q0 176 -141 176q-131 0 -131 -149v-1051q0 -41 -48.5 -68.5t-113.5 -27.5q-68 0 -112 26.5 t-44 69.5v654h-100q-37 0 -57.5 32.5t-20.5 79.5z" />
<glyph unicode="&#xe0;" horiz-adv-x="991" d="M37 252q0 170 124 239.5t355 69.5h74v21q0 61 -37 106t-117 45q-98 0 -161.5 -33.5t-77.5 -33.5q-49 0 -78 48t-29 109q0 68 113.5 116t236.5 48q236 0 351.5 -114.5t115.5 -286.5v-488q0 -41 -44 -69.5t-111 -28.5q-59 0 -100.5 28.5t-41.5 69.5v45q-141 -164 -311 -163 q-113 0 -187.5 69.5t-74.5 202.5zM256 1356q0 43 28.5 81t67.5 38q12 0 29 -7l287 -133q41 -20 41 -71q0 -43 -28 -81t-67 -38q-10 0 -30 8l-287 133q-41 21 -41 70zM356 297q0 -86 80 -86q51 0 102.5 57.5t51.5 130.5v9h-8q-68 0 -112 -6.5t-79 -32t-35 -72.5z" />
<glyph unicode="&#xe1;" horiz-adv-x="991" d="M37 252q0 170 124 239.5t355 69.5h74v21q0 61 -37 106t-117 45q-98 0 -161.5 -33.5t-77.5 -33.5q-49 0 -78 48t-29 109q0 68 113.5 116t236.5 48q236 0 351.5 -114.5t115.5 -286.5v-488q0 -41 -44 -69.5t-111 -28.5q-59 0 -100.5 28.5t-41.5 69.5v45q-141 -164 -311 -163 q-113 0 -187.5 69.5t-74.5 202.5zM297 1264q0 51 41 71l287 133q14 6 28 7q39 0 68 -38t29 -81q0 -49 -41 -70l-287 -133q-20 -8 -31 -8q-39 0 -66.5 38t-27.5 81zM356 297q0 -86 80 -86q51 0 102.5 57.5t51.5 130.5v9h-8q-68 0 -112 -6.5t-79 -32t-35 -72.5z" />
<glyph unicode="&#xe2;" horiz-adv-x="991" d="M37 252q0 170 124 239.5t355 69.5h74v21q0 61 -37 106t-117 45q-98 0 -161.5 -33.5t-77.5 -33.5q-49 0 -78 48t-29 109q0 68 113.5 116t236.5 48q236 0 351.5 -114.5t115.5 -286.5v-488q0 -41 -44 -69.5t-111 -28.5q-59 0 -100.5 28.5t-41.5 69.5v45q-141 -164 -311 -163 q-113 0 -187.5 69.5t-74.5 202.5zM164 1260q0 61 51 90l213 114q20 10 34.5 10.5t35.5 -10.5l213 -114q51 -29 51 -90q0 -37 -18.5 -66t-45.5 -29q-10 0 -22 6l-213 115l-213 -115q-12 -6 -23 -6q-27 0 -45 29t-18 66zM356 297q0 -86 80 -86q51 0 102.5 57.5t51.5 130.5v9 h-8q-68 0 -112 -6.5t-79 -32t-35 -72.5z" />
<glyph unicode="&#xe3;" horiz-adv-x="991" d="M37 252q0 170 124 239.5t355 69.5h74v21q0 61 -37 106t-117 45q-98 0 -161.5 -33.5t-77.5 -33.5q-49 0 -78 48t-29 109q0 68 113.5 116t236.5 48q236 0 351.5 -114.5t115.5 -286.5v-488q0 -41 -44 -69.5t-111 -28.5q-59 0 -100.5 28.5t-41.5 69.5v45q-141 -164 -311 -163 q-113 0 -187.5 69.5t-74.5 202.5zM119 1298q0 150 174 150q63 0 153.5 -27.5t145.5 -27.5q47 0 102.5 21.5t73.5 21.5q41 0 59.5 -36t18.5 -65q0 -150 -174 -149q-78 0 -167 27.5t-132 27.5q-47 0 -102.5 -21.5t-73.5 -21.5q-41 0 -59.5 35.5t-18.5 64.5zM356 297 q0 -86 80 -86q51 0 102.5 57.5t51.5 130.5v9h-8q-68 0 -112 -6.5t-79 -32t-35 -72.5z" />
<glyph unicode="&#xe4;" horiz-adv-x="991" d="M37 252q0 170 124 239.5t355 69.5h74v21q0 61 -37 106t-117 45q-98 0 -161.5 -33.5t-77.5 -33.5q-49 0 -78 48t-29 109q0 68 113.5 116t236.5 48q236 0 351.5 -114.5t115.5 -286.5v-488q0 -41 -44 -69.5t-111 -28.5q-59 0 -100.5 28.5t-41.5 69.5v45q-141 -164 -311 -163 q-113 0 -187.5 69.5t-74.5 202.5zM199 1290q0 47 34.5 83t81.5 36t81 -36t34 -83q0 -49 -34 -85t-81 -36t-81.5 37t-34.5 84zM356 297q0 -86 80 -86q51 0 102.5 57.5t51.5 130.5v9h-8q-68 0 -112 -6.5t-79 -32t-35 -72.5zM526 1290q0 47 35 83t82 36t81 -36t34 -83 q0 -49 -34 -85t-81 -36t-82 37t-35 84z" />
<glyph unicode="&#xe5;" horiz-adv-x="991" d="M37 252q0 170 124 239.5t355 69.5h74v21q0 61 -37 106t-117 45q-98 0 -161.5 -33.5t-77.5 -33.5q-49 0 -78 48t-29 109q0 68 113.5 116t236.5 48q236 0 351.5 -114.5t115.5 -286.5v-488q0 -41 -44 -69.5t-111 -28.5q-59 0 -100.5 28.5t-41.5 69.5v45q-141 -164 -311 -163 q-113 0 -187.5 69.5t-74.5 202.5zM281 1368q0 82 59 144.5t143 62.5q82 0 144.5 -62.5t62.5 -144.5q0 -84 -62.5 -147.5t-144.5 -63.5t-142 63.5t-60 147.5zM356 297q0 -86 80 -86q51 0 102.5 57.5t51.5 130.5v9h-8q-68 0 -112 -6.5t-79 -32t-35 -72.5zM401 1366 q0 -33 25 -59.5t59 -26.5q33 0 56.5 26.5t23.5 59.5q0 31 -23.5 55.5t-56.5 24.5q-35 0 -59.5 -24.5t-24.5 -55.5z" />
<glyph unicode="&#xe6;" horiz-adv-x="1548" d="M35 252q0 170 124 239.5t355 69.5h74v21q0 61 -37 106t-117 45q-98 0 -161.5 -33.5t-77.5 -33.5q-49 0 -78 48t-29 109q0 68 113.5 116t236.5 48q207 0 324 -147q131 147 297 147q182 0 311 -109.5t129 -279.5q0 -66 -16.5 -106.5t-49 -57t-60 -21.5t-73.5 -5h-395v-13 q0 -76 57.5 -122t151.5 -46q72 0 150.5 38t105.5 38q51 0 84 -48t33 -91q0 -63 -109.5 -123.5t-271.5 -60.5q-244 0 -387 192q-168 -193 -361 -192q-139 0 -231 69.5t-92 202.5zM354 297q0 -86 80 -86q51 0 102.5 57.5t51.5 130.5v9h-8q-68 0 -112 -6.5t-79 -32t-35 -72.5z M905 586h254q43 0 43 49q0 57 -44 90t-105 33q-59 0 -103.5 -33t-44.5 -90v-49z" />
<glyph unicode="&#xe7;" horiz-adv-x="905" d="M57 414v139q0 195 116 314.5t345 119.5q147 0 246.5 -50t99.5 -120q0 -51 -35.5 -103t-87.5 -52q-16 0 -74.5 24.5t-121.5 24.5q-170 0 -170 -158v-139q0 -158 172 -158q61 0 117.5 27.5t76.5 27.5q59 0 97.5 -49t38.5 -102q0 -63 -86 -115.5t-213 -62.5l-27 -78 q100 -4 152.5 -49t52.5 -113q0 -70 -53.5 -130.5t-174.5 -60.5q-66 0 -123 17.5t-57 46.5q0 20 14.5 53t38.5 33q8 0 45 -14.5t74 -14.5q94 0 94 64q0 61 -88 69l-127 13l50 166q-197 18 -294.5 134t-97.5 296z" />
<glyph unicode="&#xe8;" horiz-adv-x="1015" d="M55 414v149q0 174 138.5 299t332.5 125q182 0 311.5 -109.5t129.5 -279.5q0 -66 -16.5 -106.5t-49.5 -57t-60.5 -21.5t-72.5 -5h-395v-13q0 -76 57 -122t152 -46q72 0 150.5 38t105.5 38q51 0 83.5 -48t32.5 -91q0 -63 -109.5 -123.5t-271.5 -60.5q-229 0 -373.5 119.5 t-144.5 314.5zM262 1356q0 43 28.5 81t67.5 38q14 0 29 -7l287 -133q41 -20 41 -71q0 -43 -28 -81t-66 -38q-10 0 -31 8l-287 133q-41 21 -41 70zM373 586h254q43 0 43 49q0 57 -44 90t-106 33q-59 0 -103 -33t-44 -90v-49z" />
<glyph unicode="&#xe9;" horiz-adv-x="1015" d="M55 414v149q0 174 138.5 299t332.5 125q182 0 311.5 -109.5t129.5 -279.5q0 -66 -16.5 -106.5t-49.5 -57t-60.5 -21.5t-72.5 -5h-395v-13q0 -76 57 -122t152 -46q72 0 150.5 38t105.5 38q51 0 83.5 -48t32.5 -91q0 -63 -109.5 -123.5t-271.5 -60.5q-229 0 -373.5 119.5 t-144.5 314.5zM303 1264q0 51 41 71l287 133q16 6 28 7q39 0 68 -38t29 -81q0 -49 -41 -70l-287 -133q-20 -8 -31 -8q-39 0 -66.5 38t-27.5 81zM373 586h254q43 0 43 49q0 57 -44 90t-106 33q-59 0 -103 -33t-44 -90v-49z" />
<glyph unicode="&#xea;" horiz-adv-x="1015" d="M55 414v149q0 174 138.5 299t332.5 125q182 0 311.5 -109.5t129.5 -279.5q0 -66 -16.5 -106.5t-49.5 -57t-60.5 -21.5t-72.5 -5h-395v-13q0 -76 57 -122t152 -46q72 0 150.5 38t105.5 38q51 0 83.5 -48t32.5 -91q0 -63 -109.5 -123.5t-271.5 -60.5q-229 0 -373.5 119.5 t-144.5 314.5zM223 1260q0 61 51 90l213 114q20 10 35 10.5t35 -10.5l213 -114q51 -29 51 -90q0 -37 -18.5 -66t-44.5 -29q-10 0 -23 6l-213 115l-213 -115q-12 -6 -22 -6q-27 0 -45.5 29t-18.5 66zM373 586h254q43 0 43 49q0 57 -44 90t-106 33q-59 0 -103 -33t-44 -90v-49 z" />
<glyph unicode="&#xeb;" horiz-adv-x="1015" d="M55 414v149q0 174 138.5 299t332.5 125q182 0 311.5 -109.5t129.5 -279.5q0 -66 -16.5 -106.5t-49.5 -57t-60.5 -21.5t-72.5 -5h-395v-13q0 -76 57 -122t152 -46q72 0 150.5 38t105.5 38q51 0 83.5 -48t32.5 -91q0 -63 -109.5 -123.5t-271.5 -60.5q-229 0 -373.5 119.5 t-144.5 314.5zM240 1290q0 47 34.5 83t81.5 36t81 -36t34 -83q0 -49 -34 -85t-81 -36t-81.5 37t-34.5 84zM373 586h254q43 0 43 49q0 57 -44 90t-106 33q-59 0 -103 -33t-44 -90v-49zM567 1290q0 47 35 83t82 36t81 -36t34 -83q0 -49 -34 -85t-81 -36t-82 37t-35 84z" />
<glyph unicode="&#xec;" horiz-adv-x="499" d="M-14 1356q0 43 28.5 81t67.5 38q12 0 29 -7l286 -133q41 -20 41 -71q0 -43 -27.5 -81t-66.5 -38q-10 0 -31 8l-286 133q-41 21 -41 70zM92 98v781q0 43 44 69.5t114 26.5q68 0 114 -26.5t46 -69.5v-781q0 -37 -47.5 -67.5t-112.5 -30.5q-68 0 -113 29.5t-45 68.5z" />
<glyph unicode="&#xed;" horiz-adv-x="499" d="M68 1264q0 51 41 71l286 133q14 6 29 7q39 0 67.5 -38t28.5 -81q0 -49 -41 -70l-286 -133q-20 -8 -31 -8q-39 0 -66.5 38t-27.5 81zM92 98v781q0 43 44 69.5t114 26.5q68 0 114 -26.5t46 -69.5v-781q0 -37 -47.5 -67.5t-112.5 -30.5q-68 0 -113 29.5t-45 68.5z" />
<glyph unicode="&#xee;" horiz-adv-x="499" d="M-47 1260q0 61 51 90l213 114q20 10 34.5 10.5t35.5 -10.5l213 -114q51 -29 51 -90q0 -37 -18.5 -66t-45.5 -29q-10 0 -22 6l-213 115l-213 -115q-12 -6 -23 -6q-27 0 -45 29t-18 66zM92 98v781q0 43 44 69.5t114 26.5q68 0 114 -26.5t46 -69.5v-781q0 -37 -47.5 -67.5 t-112.5 -30.5q-68 0 -113 29.5t-45 68.5z" />
<glyph unicode="&#xef;" horiz-adv-x="499" d="M-20 1290q0 47 34.5 83t81.5 36t81 -36t34 -83q0 -49 -34 -85t-81 -36t-81.5 37t-34.5 84zM92 98v781q0 43 44 69.5t114 26.5q68 0 114 -26.5t46 -69.5v-781q0 -37 -47.5 -67.5t-112.5 -30.5q-68 0 -113 29.5t-45 68.5zM307 1290q0 47 35 83t82 36t81 -36t34 -83 q0 -49 -34 -85t-81 -36t-82 37t-35 84z" />
<glyph unicode="&#xf0;" horiz-adv-x="1075" d="M55 414v143q0 176 106.5 303t256.5 127q88 0 156.5 -45t103.5 -111q0 127 -72 265l-84 -52q-10 -8 -28 -8q-39 0 -74 41t-35 84q0 37 33 58l67 41q-2 4 -9 9t-9 7l-12 12l-13 12l-12 13q-8 8 -11 15t-7 15.5t-6.5 18.5t-2.5 20q0 53 38 102.5t116 49.5q109 0 201 -109 l100 62q14 8 31 8q39 0 72.5 -40t33.5 -83q0 -39 -32 -59l-97 -60q129 -268 129 -551v-288q0 -172 -140 -303t-328.5 -131t-330 131t-141.5 303zM373 414q0 -61 46 -109.5t107.5 -48.5t106.5 48t45 110v143q0 68 -48 111t-108 43q-61 0 -105 -47.5t-44 -106.5v-143z" />
<glyph unicode="&#xf1;" horiz-adv-x="1093" d="M92 98v781q0 43 44 69.5t114 26.5q57 0 98 -26.5t41 -69.5v-48q33 66 105.5 111t169.5 45q141 0 244.5 -127t103.5 -303v-459q0 -47 -47 -72.5t-113 -25.5q-61 0 -109.5 26.5t-48.5 71.5v459q0 59 -44 106.5t-103 47.5q-53 0 -95 -42t-42 -112v-459q0 -37 -48.5 -67.5 t-111.5 -30.5q-68 0 -113 29.5t-45 68.5zM182 1298q0 150 174 150q63 0 153.5 -27.5t145.5 -27.5q47 0 102.5 21.5t73.5 21.5q41 0 59.5 -36t18.5 -65q0 -150 -174 -149q-78 0 -167 27.5t-132 27.5q-47 0 -102 -21.5t-74 -21.5q-41 0 -59.5 35.5t-18.5 64.5z" />
<glyph unicode="&#xf2;" horiz-adv-x="1042" d="M55 414v143q0 174 137.5 302t327.5 128q188 0 327.5 -127t139.5 -303v-143q0 -172 -140 -303t-326.5 -131t-326 131t-139.5 303zM262 1356q0 43 28.5 81t67.5 38q14 0 29 -7l287 -133q41 -20 41 -71q0 -43 -28 -81t-66 -38q-10 0 -31 8l-287 133q-41 21 -41 70zM373 414 q0 -61 43 -109.5t104.5 -48.5t105.5 48t44 110v143q0 59 -45 106.5t-104.5 47.5t-103.5 -47.5t-44 -106.5v-143z" />
<glyph unicode="&#xf3;" horiz-adv-x="1042" d="M55 414v143q0 174 137.5 302t327.5 128q188 0 327.5 -127t139.5 -303v-143q0 -172 -140 -303t-326.5 -131t-326 131t-139.5 303zM303 1264q0 51 41 71l287 133q16 6 28 7q39 0 68 -38t29 -81q0 -49 -41 -70l-287 -133q-20 -8 -31 -8q-39 0 -66.5 38t-27.5 81zM373 414 q0 -61 43 -109.5t104.5 -48.5t105.5 48t44 110v143q0 59 -45 106.5t-104.5 47.5t-103.5 -47.5t-44 -106.5v-143z" />
<glyph unicode="&#xf4;" horiz-adv-x="1042" d="M55 414v143q0 174 137.5 302t327.5 128q188 0 327.5 -127t139.5 -303v-143q0 -172 -140 -303t-326.5 -131t-326 131t-139.5 303zM221 1260q0 61 51 90l213 114q20 10 35 10.5t35 -10.5l213 -114q51 -29 51 -90q0 -37 -18.5 -66t-44.5 -29q-10 0 -23 6l-213 115l-213 -115 q-12 -6 -22 -6q-27 0 -45.5 29t-18.5 66zM373 414q0 -61 43 -109.5t104.5 -48.5t105.5 48t44 110v143q0 59 -45 106.5t-104.5 47.5t-103.5 -47.5t-44 -106.5v-143z" />
<glyph unicode="&#xf5;" horiz-adv-x="1042" d="M55 414v143q0 174 137.5 302t327.5 128q188 0 327.5 -127t139.5 -303v-143q0 -172 -140 -303t-326.5 -131t-326 131t-139.5 303zM160 1298q0 150 174 150q63 0 153.5 -27.5t145.5 -27.5q47 0 102.5 21.5t73.5 21.5q41 0 59.5 -36t18.5 -65q0 -150 -174 -149 q-78 0 -167 27.5t-132 27.5q-47 0 -102.5 -21.5t-73.5 -21.5q-41 0 -59.5 35.5t-18.5 64.5zM373 414q0 -61 43 -109.5t104.5 -48.5t105.5 48t44 110v143q0 59 -45 106.5t-104.5 47.5t-103.5 -47.5t-44 -106.5v-143z" />
<glyph unicode="&#xf6;" horiz-adv-x="1042" d="M55 414v143q0 174 137.5 302t327.5 128q188 0 327.5 -127t139.5 -303v-143q0 -172 -140 -303t-326.5 -131t-326 131t-139.5 303zM244 1290q0 47 34.5 83t82 36t81 -36t33.5 -83q0 -49 -33.5 -85t-81 -36t-82 37t-34.5 84zM373 414q0 -61 43 -109.5t104.5 -48.5t105.5 48 t44 110v143q0 59 -45 106.5t-104.5 47.5t-103.5 -47.5t-44 -106.5v-143zM571 1290q0 47 35 83t82 36t81 -36t34 -83q0 -49 -34 -85t-81 -36t-82 37t-35 84z" />
<glyph unicode="&#xf7;" horiz-adv-x="931" d="M41 487q0 53 27.5 88t72.5 35h647q39 0 71 -35.5t32 -87.5q0 -53 -31 -86.5t-72 -33.5h-647q-45 0 -72.5 32.5t-27.5 87.5zM322 135q0 55 40.5 92t96.5 37q51 0 93 -37t42 -92q0 -51 -42 -91t-93 -40q-53 0 -95 40t-42 91zM322 841.5q0 53.5 40.5 92.5t96.5 39 q51 0 93 -39t42 -92.5t-42 -91t-93 -37.5q-55 0 -96 37.5t-41 91z" />
<glyph unicode="&#xf8;" horiz-adv-x="1042" d="M55 414v143q0 174 137.5 302t327.5 128q131 0 248 -67l74 98q18 27 44.5 26.5t47 -19.5t20.5 -46q0 -20 -16 -43l-72 -94q121 -125 121 -285v-143q0 -172 -140 -303t-327 -131q-135 0 -258 75l-80 -104q-12 -16 -35 -17q-25 0 -44 18.5t-19 43.5q0 18 14 37l74 98 q-117 127 -117 283zM373 397l221 291q-35 23 -74 23q-59 0 -103 -47.5t-44 -106.5v-160zM438 283q37 -27 82 -27q61 0 105.5 48t44.5 110v143q0 4 -1 12.5t-1 12.5z" />
<glyph unicode="&#xf9;" horiz-adv-x="1095" d="M82 410v467q0 37 47 67.5t113 30.5q61 0 109 -31t48 -67v-467q0 -59 45 -106.5t104.5 -47.5t103.5 47t44 107v469q0 39 48.5 67.5t111.5 28.5q68 0 113 -28.5t45 -67.5v-469q0 -172 -138.5 -301t-326.5 -129q-190 0 -328.5 129t-138.5 301zM289 1356q0 43 28.5 81 t67.5 38q12 0 29 -7l286 -133q41 -20 41 -71q0 -43 -27.5 -81t-66.5 -38q-10 0 -31 8l-286 133q-41 21 -41 70z" />
<glyph unicode="&#xfa;" horiz-adv-x="1095" d="M82 410v467q0 37 47 67.5t113 30.5q61 0 109 -31t48 -67v-467q0 -59 45 -106.5t104.5 -47.5t103.5 47t44 107v469q0 39 48.5 67.5t111.5 28.5q68 0 113 -28.5t45 -67.5v-469q0 -172 -138.5 -301t-326.5 -129q-190 0 -328.5 129t-138.5 301zM350 1264q0 51 41 71l287 133 q14 6 29 7q39 0 67.5 -38t28.5 -81q0 -49 -41 -70l-287 -133q-20 -8 -31 -8q-39 0 -66.5 38t-27.5 81z" />
<glyph unicode="&#xfb;" horiz-adv-x="1095" d="M82 410v467q0 37 47 67.5t113 30.5q61 0 109 -31t48 -67v-467q0 -59 45 -106.5t104.5 -47.5t103.5 47t44 107v469q0 39 48.5 67.5t111.5 28.5q68 0 113 -28.5t45 -67.5v-469q0 -172 -138.5 -301t-326.5 -129q-190 0 -328.5 129t-138.5 301zM252 1260q0 61 51 90l213 114 q20 10 34.5 10.5t35.5 -10.5l213 -114q51 -29 51 -90q0 -37 -18.5 -66t-45.5 -29q-10 0 -22 6l-213 115l-213 -115q-12 -6 -23 -6q-27 0 -45 29t-18 66z" />
<glyph unicode="&#xfc;" horiz-adv-x="1095" d="M82 410v467q0 37 47 67.5t113 30.5q61 0 109 -31t48 -67v-467q0 -59 45 -106.5t104.5 -47.5t103.5 47t44 107v469q0 39 48.5 67.5t111.5 28.5q68 0 113 -28.5t45 -67.5v-469q0 -172 -138.5 -301t-326.5 -129q-190 0 -328.5 129t-138.5 301zM270 1290q0 47 35 83t82 36 t81 -36t34 -83q0 -49 -34 -85t-81 -36t-82 37t-35 84zM598 1290q0 47 35 83t82 36t80.5 -36t33.5 -83q0 -49 -33.5 -85t-80.5 -36t-82 37t-35 84z" />
<glyph unicode="&#xfd;" horiz-adv-x="1015" d="M2 -309q0 131 78 131q291 0 291 262l-359 713q-10 20 -10 41q0 57 74 104t141.5 47t87.5 -51l232 -555l170 555q20 51 81 51q63 0 141.5 -48t78.5 -110q0 -20 -9 -34l-290 -725q-10 -29 -37 -97l-37 -94q-10 -31 -38 -85t-51.5 -80.5t-64.5 -63.5t-86 -53.5t-108.5 -29.5 t-139.5 -13q-72 0 -108.5 26.5t-36.5 108.5zM383 1264q0 51 41 71l287 133q14 6 28 7q39 0 68 -38t29 -81q0 -49 -41 -70l-287 -133q-20 -8 -31 -8q-39 0 -66.5 38t-27.5 81z" />
<glyph unicode="&#xfe;" horiz-adv-x="1091" d="M94 -346v1782q0 43 44 69.5t108 26.5q72 0 119 -26.5t47 -69.5v-605q35 66 103.5 111t152.5 45q154 0 260 -126t106 -304v-143q0 -172 -107.5 -303t-248.5 -131q-86 0 -161 48t-105 115v-489q0 -37 -48.5 -67.5t-114 -30.5t-110.5 29.5t-45 68.5zM412 387q0 -33 46 -82 t107 -49q59 0 105.5 48t46.5 110v143q0 59 -46 106.5t-110 47.5q-59 0 -104 -42t-45 -112v-170z" />
<glyph unicode="&#xff;" horiz-adv-x="1015" d="M2 -309q0 131 78 131q291 0 291 262l-359 713q-10 20 -10 41q0 57 74 104t141.5 47t87.5 -51l232 -555l170 555q20 51 81 51q63 0 141.5 -48t78.5 -110q0 -20 -9 -34l-290 -725q-10 -29 -37 -97l-37 -94q-10 -31 -38 -85t-51.5 -80.5t-64.5 -63.5t-86 -53.5t-108.5 -29.5 t-139.5 -13q-72 0 -108.5 26.5t-36.5 108.5zM254 1290q0 47 35 83t82 36t80.5 -36t33.5 -83q0 -49 -33.5 -85t-80.5 -36t-82 37t-35 84zM582 1290q0 47 34.5 83t81.5 36t81 -36t34 -83q0 -49 -34 -85t-81 -36t-81.5 37t-34.5 84z" />
<glyph unicode="&#x152;" horiz-adv-x="1691" d="M96 471v543q0 483 441 483q88 0 169.5 -40t118.5 -111v53q0 47 41 72.5t99 25.5h602q47 0 71.5 -41t24.5 -96q0 -59 -25.5 -100t-70.5 -41h-463v-347h221q45 0 70.5 -36.5t25.5 -87.5q0 -47 -24.5 -84t-71.5 -37h-221v-348h463q45 0 70.5 -41t25.5 -101q0 -55 -24.5 -96 t-71.5 -41h-602q-57 0 -98.5 25.5t-41.5 72.5v41q-37 -72 -118.5 -111.5t-169.5 -39.5q-441 0 -441 483zM416 471q0 -205 182 -205q184 0 184 205v543q0 205 -184 205q-182 0 -182 -205v-543z" />
<glyph unicode="&#x153;" horiz-adv-x="1630" d="M55 414v143q0 174 137.5 302t327.5 128q193 0 324 -147q131 147 297 147q182 0 311 -109.5t129 -279.5q0 -66 -16.5 -106.5t-49 -57t-60.5 -21.5t-73 -5h-395v-13q0 -76 57.5 -122t151.5 -46q72 0 150.5 38t105.5 38q51 0 84 -48t33 -91q0 -63 -109.5 -123.5 t-271.5 -60.5q-209 0 -344 147q-137 -147 -323.5 -147t-326 131t-139.5 303zM373 414q0 -61 43 -109.5t104.5 -48.5t105.5 48t44 110v143q0 59 -45 106.5t-104.5 47.5t-103.5 -47.5t-44 -106.5v-143zM987 586h254q43 0 43 49q0 57 -44 90t-105 33q-59 0 -103.5 -33 t-44.5 -90v-49z" />
<glyph unicode="&#x178;" horiz-adv-x="1208" d="M8 1366q0 53 73 92t144 39q37 0 55.5 -13.5t36.5 -45.5l287 -527l285 527q31 59 92 59q72 0 144.5 -39t72.5 -92q0 -14 -4 -23l-422 -702q-8 -12 -8 -29v-514q0 -47 -47 -72.5t-112.5 -25.5t-113 25.5t-47.5 72.5v514q0 16 -8 29l-424 702q-4 9 -4 23zM326 1780 q0 47 34.5 82.5t81.5 35.5t81 -35.5t34 -82.5q0 -49 -34 -85t-81 -36t-81.5 37t-34.5 84zM653 1780q0 47 35 82.5t82 35.5t81 -35.5t34 -82.5q0 -49 -34 -85t-81 -36t-82 37t-35 84z" />
<glyph unicode="&#x2c6;" horiz-adv-x="598" d="M0 1260q0 61 51 90l213 114q20 10 34.5 10.5t35.5 -10.5l213 -114q51 -29 51 -90q0 -37 -18.5 -66t-44.5 -29q-10 0 -23 6l-213 115l-213 -115q-12 -6 -23 -6q-27 0 -45 29t-18 66z" />
<glyph unicode="&#x2dc;" horiz-adv-x="727" d="M0 1298q0 150 174 150q63 0 153.5 -27.5t145.5 -27.5q47 0 102.5 21.5t73.5 21.5q41 0 59.5 -36t18.5 -65q0 -150 -174 -149q-78 0 -167 27.5t-132 27.5q-47 0 -102.5 -21.5t-73.5 -21.5q-41 0 -59.5 35.5t-18.5 64.5z" />
<glyph unicode="&#x2000;" horiz-adv-x="1032" />
<glyph unicode="&#x2001;" horiz-adv-x="2064" />
<glyph unicode="&#x2002;" horiz-adv-x="1032" />
<glyph unicode="&#x2003;" horiz-adv-x="2064" />
<glyph unicode="&#x2004;" horiz-adv-x="688" />
<glyph unicode="&#x2005;" horiz-adv-x="516" />
<glyph unicode="&#x2006;" horiz-adv-x="344" />
<glyph unicode="&#x2007;" horiz-adv-x="344" />
<glyph unicode="&#x2008;" horiz-adv-x="258" />
<glyph unicode="&#x2009;" horiz-adv-x="412" />
<glyph unicode="&#x200a;" horiz-adv-x="114" />
<glyph unicode="&#x2010;" horiz-adv-x="851" d="M63 492q0 55 27 93t70 38h532q39 0 69 -39t30 -92q0 -55 -30 -92.5t-69 -37.5h-532q-43 0 -70 36.5t-27 93.5z" />
<glyph unicode="&#x2011;" horiz-adv-x="851" d="M63 492q0 55 27 93t70 38h532q39 0 69 -39t30 -92q0 -55 -30 -92.5t-69 -37.5h-532q-43 0 -70 36.5t-27 93.5z" />
<glyph unicode="&#x2012;" horiz-adv-x="851" d="M63 492q0 55 27 93t70 38h532q39 0 69 -39t30 -92q0 -55 -30 -92.5t-69 -37.5h-532q-43 0 -70 36.5t-27 93.5z" />
<glyph unicode="&#x2013;" horiz-adv-x="974" d="M63 492q0 55 27 93t70 38h655q39 0 68.5 -39t29.5 -92q0 -55 -29.5 -92.5t-68.5 -37.5h-655q-43 0 -70 36.5t-27 93.5z" />
<glyph unicode="&#x2014;" horiz-adv-x="1550" d="M63 492q0 55 27 93t70 38h1231q39 0 68.5 -39t29.5 -92q0 -55 -29.5 -92.5t-68.5 -37.5h-1231q-43 0 -70 36.5t-27 93.5z" />
<glyph unicode="&#x2018;" horiz-adv-x="391" d="M33 1153q0 33 127 328q16 37 61 37q37 0 70 -22.5t33 -57.5q0 -16 -9 -33l-51 -111q82 -47 82 -139q0 -66 -46 -112t-109.5 -46t-110.5 46.5t-47 109.5z" />
<glyph unicode="&#x2019;" horiz-adv-x="389" d="M47 1360q0 66 46 112t109.5 46t110.5 -46.5t47 -109.5q0 -33 -127 -328q-16 -37 -61 -37q-37 0 -69.5 22.5t-32.5 57.5q0 16 8 33l51 111q-82 47 -82 139z" />
<glyph unicode="&#x201a;" horiz-adv-x="407" d="M47 145q0 66 46 112t109.5 46t110.5 -46t47 -110q0 -33 -127 -327q-16 -37 -61 -37q-37 0 -69.5 22.5t-32.5 57.5q0 16 8 33l51 110q-82 47 -82 139z" />
<glyph unicode="&#x201c;" horiz-adv-x="800" d="M33 1153q0 33 127 328q16 37 61 37q37 0 70 -22.5t33 -57.5q0 -16 -9 -33l-51 -111q82 -47 82 -139q0 -66 -46 -112t-109.5 -46t-110.5 46.5t-47 109.5zM442 1153q0 33 127 328q16 37 62 37q37 0 69.5 -22.5t32.5 -57.5q0 -16 -8 -33l-51 -111q82 -47 82 -139 q0 -66 -46 -112t-109.5 -46t-111 46.5t-47.5 109.5z" />
<glyph unicode="&#x201d;" horiz-adv-x="798" d="M47 1360q0 66 46 112t109.5 46t110.5 -46.5t47 -109.5q0 -33 -127 -328q-16 -37 -61 -37q-37 0 -69.5 22.5t-32.5 57.5q0 16 8 33l51 111q-82 47 -82 139zM457 1360q0 66 46 112t109.5 46t110.5 -46.5t47 -109.5q0 -33 -127 -328q-16 -37 -61 -37q-37 0 -70 22.5 t-33 57.5q0 16 8 33l52 111q-82 47 -82 139z" />
<glyph unicode="&#x201e;" horiz-adv-x="817" d="M47 145q0 66 46 112t109.5 46t110.5 -46t47 -110q0 -33 -127 -327q-16 -37 -61 -37q-37 0 -69.5 22.5t-32.5 57.5q0 16 8 33l51 110q-82 47 -82 139zM457 145q0 66 46 112t109.5 46t110.5 -46t47 -110q0 -33 -127 -327q-16 -37 -61 -37q-37 0 -70 22.5t-33 57.5 q0 16 8 33l52 110q-82 47 -82 139z" />
<glyph unicode="&#x2022;" horiz-adv-x="686" d="M53 614q0 111 87 194t204 83q115 0 202 -83t87 -194q0 -113 -87 -195.5t-202 -82.5q-117 0 -204 82.5t-87 195.5z" />
<glyph unicode="&#x2026;" horiz-adv-x="1212" d="M47 145q0 66 45 112t113 46q63 0 109 -47t46 -110.5t-46 -110.5t-109 -47q-66 0 -112 47t-46 110zM451 145q0 66 45 112t112 46q63 0 109.5 -47t46.5 -110.5t-46 -110.5t-110 -47q-66 0 -111.5 47t-45.5 110zM852 145q0 66 45 112t113 46q63 0 109 -47t46 -110.5 t-46 -110.5t-109 -47q-66 0 -112 47t-46 110z" />
<glyph unicode="&#x202f;" horiz-adv-x="412" />
<glyph unicode="&#x2039;" horiz-adv-x="587" d="M43 565.5q0 16.5 6 30.5t25 43l26 49l138 256q20 39 86 39q76 0 138 -54.5t62 -105.5q0 -16 -6 -28l-121 -228l121 -227q6 -12 6 -29q0 -51 -62.5 -105t-137.5 -54q-66 0 -86 38l-138 256q-10 20 -27.5 47t-23.5 41.5t-6 31z" />
<glyph unicode="&#x203a;" horiz-adv-x="587" d="M63 311q0 16 7 29l120 227l-120 228q-6 12 -7 28q0 51 62.5 105.5t138.5 54.5q68 0 86 -39l137 -256l23 -41l18 -31q6 -10 11.5 -24t5.5 -27q0 -16 -6.5 -30.5t-23.5 -41t-28 -47.5l-137 -256q-18 -39 -86 -38q-76 0 -138.5 54t-62.5 105z" />
<glyph unicode="&#x205f;" horiz-adv-x="516" />
<glyph unicode="&#x20ac;" horiz-adv-x="1302" d="M47 549q0 49 26.5 81t69.5 32h82v122h-82q-43 0 -69.5 30t-26.5 77q0 49 26.5 81t69.5 32h82v10q0 250 136.5 366.5t357.5 116.5q223 0 367.5 -108.5t144.5 -298.5q0 -86 -36 -115t-126 -29q-86 0 -122 20.5t-36 67.5q0 184 -180 185q-186 0 -186 -205v-10h131 q37 0 67.5 -33t30.5 -78t-29.5 -77t-68.5 -32h-131v-122h131q37 0 67.5 -33t30.5 -78q0 -47 -29.5 -78t-68.5 -31h-131v-8q0 -16 6 -37.5t22.5 -54.5t58.5 -54.5t101 -21.5q57 0 95 19.5t54.5 54.5t22.5 63.5t6 67.5q2 49 37 68.5t121 19.5q92 0 127 -28.5t35 -116.5 q0 -197 -144.5 -311.5t-367.5 -114.5q-233 0 -363.5 125t-130.5 321v8h-82q-43 0 -69.5 30t-26.5 77z" />
<glyph unicode="&#x2122;" horiz-adv-x="1419" d="M80 1497q0 76 49 76h461q49 0 49 -76q0 -33 -13.5 -55.5t-35.5 -22.5h-148v-391q0 -25 -24.5 -39t-57.5 -14q-35 0 -59.5 14.5t-24.5 38.5v391h-147q-23 0 -36 22.5t-13 55.5zM674 1028v461q0 43 23.5 63.5t58.5 20.5q49 0 73.5 -14.5t53.5 -71.5l112 -219l111 219 q29 57 53.5 71.5t73.5 14.5q82 0 82 -84v-461q0 -25 -24.5 -39t-57.5 -14t-57.5 14.5t-24.5 38.5v209l-104 -203q-16 -33 -54 -33q-39 0 -53 33l-100 211v-217q0 -25 -26 -39t-58.5 -14t-57 14t-24.5 39z" />
<glyph unicode="&#x25fc;" horiz-adv-x="983" d="M0 0v983h983v-983h-983z" />
</font>
</defs>
</svg>
